[ Сегодня идет свободное скачивание без начисления Download ]


Статистика раздачи
Скачал: [ 1 ]
 
   
 
Top  
 
 
Пришельцы в Америке / Just Visiting (2001) BDRip 720р Информация о фильме
Название: Пришельцы в Америке
Оригинальное название: Just Visiting
Год выхода: 2001
Жанр: Фантастика, комедия, приключения
Режиссер: Жан-Мари Пуарэ
В ролях: Жан Рено, Кристина Эпплгейт, Кристиан Клавье, Мэтт Росс, Тара Рейд, Бриджит Уилсон, Джон Эйлуорд, Джордж Плимптон, Малкольм МакДауэлл, Мартин Аистроп, Наоми Армстронг, Эрик Авилес, Сара Бэдел, Билл Бэйли, Таб Бэйкер, Даг Баррон, Клифф Бэрри, Джанетт Бикертон, Люси Блэр, Уильям Букстон, Рой Бутчер, Ричард Бреммер, Ричард Бертон Браун, Фелипе Камачо, Александра Каплан, Дрю Энн Карлсон, Хелен Каро, Лоренцо Клемонс, Пол Коннелл, Лаура Кокс, Уильям Дамбра, Оливер Форд Дейвис, Эмили Димер, Альбена Додева, Лиза Додсон, Джеймс 'Айк' Ейчлинг, Мадлен Фишман, Мэтт Фурлин, Джейн Гэлловэй Хейтц, Мэтилок Гиббс, Росс Гибби
О фильме:
Два чудака из средневековой Франции, виконт Тибо и его слуга Андре, покорившие зрителей всего мира в легендарных комедиях "Коридоры времени" и "Коридоры времени 2", снова на экране! На этот раз двум героям предстоит отправиться в современные Соединенные Штаты Америки, чтобы в результате спасти от смерти возлюбленную Тибо Розалинд. В Штатах благородный рыцарь и его слуга попадают в такое количество сумасбродных и безумно смешных ситуаций, что их хватило бы на целую дюжину комедий...

Страна: США, Франция
Продолжительность: 01:28:25
Перевод: Дубляж + Авторский (одноголосый закадровый) [Живов]
Файл
Кодек: H.264
Качество: BDRip 720р от SuperMin
Видео: 1280x544 (2.35:1), 5998 kbps, 23.976 fps
Звук:
Русский (AC-3, 6ch, 448 kbps) - Дубляж
Русский (AC-3, 2ch, 192 kbps) - [Живов]
Оригинал (AC-3, 6ch, 448 kbps)
Субтитры: Русские, английские

MI

General
Unique ID : 226271765095318270315763120262671422533 (0xAA3A5B570658273F9AEC22150C3AD445)
Complete name : F:ФИЛЬМЫПришельцы.в.Америке.2001.x264.BDRip.720p.mkv
Format : Matroska
Format version : Version 4 / Version 2
File size : 4.38 GiB
Duration : 1h 28mn
Overall bit rate : 7 089 Kbps
Movie name : Пришельцы в Америке - #LORDKILL#
Encoded date : UTC 2016-04-02 11:34:03
Writing application : mkvmerge v8.3.0 ('Over the Horizon') 64bit
Writing library : libebml v1.3.1 + libmatroska v1.4.2
Video
ID : 1
Format : AVC
Format/Info : Advanced Video Codec
Format profile : High@L4
Format settings, CABAC : Yes
Format settings, ReFrames : 8 frames
Format settings, GOP : N=1
Codec ID : V_MPEG4/ISO/AVC
Duration : 1h 28mn
Bit rate : 5 998 Kbps
Width : 1 280 pixels
Height : 544 pixels
Display aspect ratio : 2.35:1
Frame rate mode : Constant
Frame rate : 23.976 (24000/1001) fps
Color space : YUV
Chroma subsampling : 4:2:0
Bit depth : 8 bits
Scan type : Progressive
Bits/(Pixel*Frame) : 0.359
Stream size : 3.70 GiB (85%)
Default : Yes
Forced : No
Audio #1
ID : 2
Format : AC-3
Format/Info : Audio Coding 3
Mode extension : CM (complete main)
Format settings, Endianness : Big
Codec ID : A_AC3
Duration : 1h 28mn
Bit rate mode : Constant
Bit rate : 448 Kbps
Channel(s) : 6 channels
Channel positions : Front: L C R, Side: L R, LFE
Sampling rate : 48.0 KHz
Frame rate : 31.250 fps (1536 spf)
Compression mode : Lossy
Stream size : 283 MiB (6%)
Title : Дубляж
Language : Russian
Default : Yes
Forced : No
Audio #2
ID : 3
Format : AC-3
Format/Info : Audio Coding 3
Mode extension : CM (complete main)
Format settings, Endianness : Big
Codec ID : A_AC3
Duration : 1h 28mn
Bit rate mode : Constant
Bit rate : 192 Kbps
Channel(s) : 2 channels
Channel positions : Front: L R
Sampling rate : 48.0 KHz
Frame rate : 31.250 fps (1536 spf)
Compression mode : Lossy
Stream size : 121 MiB (3%)
Title : Живов
Language : Russian
Default : No
Forced : No
Audio #3
ID : 4
Format : AC-3
Format/Info : Audio Coding 3
Mode extension : CM (complete main)
Format settings, Endianness : Big
Codec ID : A_AC3
Duration : 1h 28mn
Bit rate mode : Constant
Bit rate : 448 Kbps
Channel(s) : 6 channels
Channel positions : Front: L C R, Side: L R, LFE
Sampling rate : 48.0 KHz
Frame rate : 31.250 fps (1536 spf)
Compression mode : Lossy
Stream size : 283 MiB (6%)
Language : English
Default : No
Forced : No
Text #1
ID : 5
Format : UTF-8
Codec ID : S_TEXT/UTF8
Codec ID/Info : UTF-8 Plain Text
Duration : 1h 22mn
Bit rate : 86 bps
Count of elements : 712
Stream size : 52.2 KiB (0%)
Language : Russian
Default : Yes
Forced : No
Text #2
ID : 6
Format : UTF-8
Codec ID : S_TEXT/UTF8
Codec ID/Info : UTF-8 Plain Text
Duration : 1h 22mn
Bit rate : 56 bps
Count of elements : 1032
Stream size : 34.0 KiB (0%)
Language : English
Default : No
Forced : No

Скриншоты

Скриншот исходника

[Цитировать]



Показать сообщения:    

Текущее время: 11-Дек 11:06

Часовой пояс: UTC + 3


Вы не можете начинать темы
Вы не можете отвечать на сообщения
Вы не можете редактировать свои сообщения
Вы не можете удалять свои сообщения
Вы не можете голосовать в опросах
Вы не можете прикреплять файлы к сообщениям
Вы не можете скачивать файлы

!ВНИМАНИЕ!
Сайт не предоставляет электронные версии произведений, а занимается лишь коллекционированием и каталогизацией ссылок, присылаемых и публикуемых на форуме нашими читателями. Если вы являетесь правообладателем какого-либо представленного материала и не желаете, чтобы ссылка на него находилась в нашем каталоге, свяжитесь с нами, и мы незамедлительно удалим ее. Файлы для обмена на трекере предоставлены пользователями сайта, и администрация не несет ответственности за их содержание. Просьба не заливать файлы, защищенные авторскими правами, а также файлы нелегального содержания!