[ Сегодня идет свободное скачивание без начисления Download ]


Статистика раздачи
Нет
 
   
 
Top  
 
 
Болото / La Ciénaga (2001) BDRip 1080p Название: Болото
Оригинальное название: La Ciénaga
Год выхода: 2001
Страна: Аргентина, Франция, Испания, Япония
Студия: 4k Films, Wanda Visión S.A., Cuatro Cabezas
Продолжительность: 01:41:00
Жанр: драма, комедия, ...
Режиссер: Лукресия Мартель
В ролях: Мерседес Моран, Грасиэла Борхес, Мартин Адхемиан, Леонора Балькарсе, Сильвия Байле, София Бертолотто, Хуан Крус Бордеу, Ноэлия Браво Херрера, Мария Миколь Эльеро, Андреа Лопес, ...
Перевод: Авторский (одноголосый, закадровый) Кузнецов Сергей
О фильме: Все определено климатом: жарко, влажно, растительность бушует, солнце не проникает через набухшие влагой облака, за кадром постоянно слышны далекие раскаты грома, все время льется вода, дождь или собирается, или уже идет. Люди или болтаются возле бассейна, или едут купаться на плотину, или принимают душ; мужчины все время меняют рубашки, принюхиваясь к себе.
Дисфункциональная семья. Спивающаяся красавица-мать, с порезами на груди, после того как упала пьяная возле бассейна, разбив фужеры. Отец, тоже со следами былой красоты, который, как всем известно, изменял матери, но теперь задвинут в заднюю комнату, жалок, стар, красит волосы. Старший сын, красавец, живущий в Буэнос-Айросе на содержании бывшей подруги его отца, ровесницы его матери.
Дочь-подросток, ненавидящая мать и нашедшая ей замену в лице служанки-индианки. Младший сын, слепой на один глаз, в ожидании операции. Все сгрудились в тесной старинной асьенде, целыми днями сидят-лежат друг рядом с другом на кроватях, бытовой не шокирующий промискуитет. Тут же и собаки, и служанки-индианки. Бытовой расизм: мать подозревает служанку в воровстве, ребенку кажется, что индейцы сношают его собаку. Время от времени асьенду навещает сестра со своими тремя маленькими детьми и своей так же дисфункциональной семьей. Бассейн грязный, фильтр все время ломается. Телефон звенит не умолкая, служанки не снимают трубку. Все дисфункционирует…

Кодек: x264
Качество: BDRip 1080p
Видео: 1920x1036, 15000 kbps, 23,976 fps
Аудио #1: AC-3, 2 ch, 192 kbps (Rus) - AVO Кузнецов Сергей
Аудио #2: DTS, 2 ch, 1509 (Spa)
Субтитры: Английские

Дополнительная информация

За исходник спасибо - Core_soul

MI

x264 [info]: frame I:677 Avg QP:22.72 size:227962
x264 [info]: frame P:24559 Avg QP:24.95 size:128435
x264 [info]: frame B:120060 Avg QP:26.88 size: 67028
x264 [info]: consecutive B-frames: 0.7% 0.8% 3.4% 6.1% 6.3% 60.1% 4.2% 2.3% 1.5% 1.3% 2.3% 9.4% 1.5%
Общее
Уникальный идентификатор : 183935216042449098149986628872378630636 (0x8A60A25077E287209E857C6C7EB9C1EC)
Полное имя : Болото (La Ciénaga) 2001 BDRip 1080p.mkv
Формат : Matroska
Версия формата : Version 2
Размер файла : 11,8 Гбайт
Продолжительность : 1 ч. 41 м.
Общий поток : 16,7 Мбит/сек
Дата кодирования : UTC 2016-03-31 23:47:21
Программа кодирования : mkvmerge v4.0.0 ('The Stars were mine') сборка от Jun 6 2010 16:18:42
Библиотека кодирования : libebml v1.0.0 + libmatroska v1.0.0
Видео
Идентификатор : 1
Формат : AVC
Формат/Информация : Advanced Video Codec
Профиль формата : High@L4.1
Параметр CABAC формата : Да
Параметр ReFrames формата : 4 кадра
Идентификатор кодека : V_MPEG4/ISO/AVC
Продолжительность : 1 ч. 41 м.
Битрейт : 15,0 Мбит/сек
Ширина : 1920 пикселей
Высота : 1036 пикселей
Соотношение сторон : 1,85:1
Режим частоты кадров : Постоянный
Частота кадров : 23,976 кадра/сек
Цветовое пространство : YUV
Субдискретизация насыщенности : 4:2:0
Битовая глубина : 8 бит
Тип развёртки : Прогрессивная
Бит/(Пиксели*Кадры) : 0.315
Размер потока : 10,3 Гбайт (88%)
Библиотека кодирования : x264 core 146 r2538 121396c
Настройки программы : cabac=1 / ref=4 / deblock=1:-3:-3 / analyse=0x3:0x133 / me=umh / subme=11 / psy=1 / psy_rd=1.08:0.12 / mixed_ref=1 / me_range=32 / chroma_me=1 / trellis=2 / 8x8dct=1 / cqm=0 / deadzone=21,11 / fast_pskip=0 / chroma_qp_offset=-3 / threads=12 / lookahead_threads=2 / sliced_threads=0 / nr=0 / decimate=0 / interlaced=0 / bluray_compat=0 / constrained_intra=0 / bframes=12 / b_pyramid=2 / b_adapt=2 / b_bias=0 / direct=3 / weightb=1 / open_gop=0 / weightp=2 / keyint=240 / keyint_min=23 / scenecut=40 / intra_refresh=0 / rc_lookahead=60 / rc=2pass / mbtree=0 / bitrate=15000 / ratetol=1.0 / qcomp=0.60 / qpmin=0 / qpmax=69 / qpstep=4 / cplxblur=20.0 / qblur=0.5 / vbv_maxrate=50000 / vbv_bufsize=62500 / nal_hrd=none / filler=0 / ip_ratio=1.40 / pb_ratio=1.30 / aq=1:0.90
Язык : Spanish
Default : Нет
Forced : Нет
Аудио #1
Идентификатор : 2
Формат : AC-3
Формат/Информация : Audio Coding 3
Расширение режима : CM (complete main)
Параметр Endianness формата : Big
Идентификатор кодека : A_AC3
Продолжительность : 1 ч. 41 м.
Вид битрейта : Постоянный
Битрейт : 192 Кбит/сек
Каналы : 2 канала
Расположение каналов : Front: L R
Частота : 48,0 КГц
Метод сжатия : С потерями
Размер потока : 139 Мбайт (1%)
Заголовок : AVO Кузнецов Сергей
Язык : Russian
Default : Нет
Forced : Нет
Аудио #2
Идентификатор : 3
Формат : DTS
Формат/Информация : Digital Theater Systems
Режим : 16
Параметр Endianness формата : Big
Идентификатор кодека : A_DTS
Продолжительность : 1 ч. 41 м.
Вид битрейта : Постоянный
Битрейт : 1509 Кбит/сек
Каналы : 2 канала
Расположение каналов : Front: L R
Частота : 48,0 КГц
Битовая глубина : 24 бит
Метод сжатия : С потерями
Размер потока : 1,06 Гбайт (9%)
Язык : Spanish
Default : Нет
Forced : Нет
Текст
Идентификатор : 4
Формат : UTF-8
Идентификатор кодека : S_TEXT/UTF8
Идентификатор кодека/Информация : UTF-8 Plain Text
Язык : English
Default : Нет
Forced : Нет

Скриншоты


[Цитировать]



Показать сообщения:    

Текущее время: 11-Дек 09:08

Часовой пояс: UTC + 3


Вы не можете начинать темы
Вы не можете отвечать на сообщения
Вы не можете редактировать свои сообщения
Вы не можете удалять свои сообщения
Вы не можете голосовать в опросах
Вы не можете прикреплять файлы к сообщениям
Вы не можете скачивать файлы

!ВНИМАНИЕ!
Сайт не предоставляет электронные версии произведений, а занимается лишь коллекционированием и каталогизацией ссылок, присылаемых и публикуемых на форуме нашими читателями. Если вы являетесь правообладателем какого-либо представленного материала и не желаете, чтобы ссылка на него находилась в нашем каталоге, свяжитесь с нами, и мы незамедлительно удалим ее. Файлы для обмена на трекере предоставлены пользователями сайта, и администрация не несет ответственности за их содержание. Просьба не заливать файлы, защищенные авторскими правами, а также файлы нелегального содержания!