[ Сегодня идет свободное скачивание без начисления Download ]


Статистика раздачи
Нет
 
   
 
Top  
 
 
Украденное проклятье / Fait Accompli (1998) DVDRip-AVC Название: Украденное проклятье
Оригинальное название: Fait Accompli
Год выхода: 1998
Страна: США
Студия: Bridge Pictures, Cutting Edge Entertainment
Продолжительность: 01:29:43
Жанр: триллер, ...
Режиссер: Анджей Секула
В ролях: Майкл Мэдсен, Розанна Аркетт, Бальтазар Гетти, Филлип Глассер, Джеймс Руссо, Роберт Нотт, Рой Эйджлофф, Стюарт Стоун, Пэт Пьер Перкинс, Джек Радоста, ...
Перевод:
Профессиональный (двуголосый, закадровый) НТВ+
Авторский (одноголосый, закадровый) Сербин Юрий Владимирович
О фильме: Второразрядный воришка крадет большие деньги. К его несчастью, он даже не подозревает, что эти деньги принадлежат жрице вуду, которая наложила на них заклятье. Деньги вскоре оказываются в руках Фрэнка Барлоу, криминального босса и ярого адепта религии вуду.
С ужасом узнав, каким «богатством» он завладел, Фрэнк решает при первой же возможности вернуть украденное. Но у его любовницы Джезебел дркгие планы на будущее. Всю жизнь ожидавшая подобной возможности, красотка с улыбкой покидает город, захвативс собой туго набитую деньгами сумку. Скрываясь от погони, она прячется в пустующем доме, куда скоро должны вернуться владельцы…

Кодек: x264
Качество: DVDRip-AVC
Видео: 1024x576 , 4500 kbps, 25 fps
Аудио #1: AC-3, 2 ch, 192 kbps (Rus) - DVO НТВ+ (Владимир Вихров и Людмила Гнилова)
Аудио #2: AC-3, 2 ch, 192 kbps (Rus) - AVO Сербин Юрий Владимирович
Аудио #3: AC-3, 2 ch, 192 kbps (Eng)
Субтитры: Нет

Дополнительная информация

За исходник спасибо - Lucian666

MediaInfo

x264 [info]: frame I:786 Avg QP:14.40 size: 67177
x264 [info]: frame P:26725 Avg QP:16.69 size: 39934
x264 [info]: frame B:107089 Avg QP:18.44 size: 17810
x264 [info]: consecutive B-frames: 1.4% 1.9% 8.5% 9.9% 8.8% 57.2% 5.6% 1.7% 1.3% 0.9% 0.9% 1.1% 0.9%
Общее
Уникальный идентификатор : 178476392857918077083452191341763216531 (0x86454D8D49A37D15818158D261D9C493)
Полное имя : Украденное проклятье (Fait Accompli) 1998 DVDRip.mkv
Формат : Matroska
Версия формата : Version 2
Размер файла : 3,18 Гбайт
Продолжительность : 1 ч. 29 м.
Общий поток : 5077 Кбит/сек
Дата кодирования : UTC 2016-04-02 06:36:51
Программа кодирования : mkvmerge v4.0.0 ('The Stars were mine') сборка от Jun 6 2010 16:18:42
Библиотека кодирования : libebml v1.0.0 + libmatroska v1.0.0
Видео
Идентификатор : 1
Формат : AVC
Формат/Информация : Advanced Video Codec
Профиль формата : High@L4.1
Параметр CABAC формата : Да
Параметр ReFrames формата : 12 кадров
Идентификатор кодека : V_MPEG4/ISO/AVC
Продолжительность : 1 ч. 29 м.
Битрейт : 4500 Кбит/сек
Ширина : 1024 пикселя
Высота : 576 пикселей
Соотношение сторон : 16:9
Режим частоты кадров : Постоянный
Частота кадров : 25,000 кадров/сек
Цветовое пространство : YUV
Субдискретизация насыщенности : 4:2:0
Битовая глубина : 8 бит
Тип развёртки : Прогрессивная
Бит/(Пиксели*Кадры) : 0.305
Размер потока : 2,76 Гбайт (87%)
Библиотека кодирования : x264 core 146 r2538 121396c
Настройки программы : cabac=1 / ref=12 / deblock=1:-3:-3 / analyse=0x3:0x133 / me=umh / subme=11 / psy=1 / psy_rd=1.00:0.00 / mixed_ref=1 / me_range=32 / chroma_me=1 / trellis=2 / 8x8dct=1 / cqm=0 / deadzone=21,11 / fast_pskip=0 / chroma_qp_offset=-2 / threads=12 / lookahead_threads=2 / sliced_threads=0 / nr=0 / decimate=0 / interlaced=0 / bluray_compat=0 / constrained_intra=0 / bframes=12 / b_pyramid=2 / b_adapt=2 / b_bias=0 / direct=3 / weightb=1 / open_gop=0 / weightp=2 / keyint=250 / keyint_min=25 / scenecut=40 / intra_refresh=0 / rc=2pass / mbtree=0 / bitrate=4500 / ratetol=1.0 / qcomp=0.60 / qpmin=0 / qpmax=69 / qpstep=4 / cplxblur=20.0 / qblur=0.5 / ip_ratio=1.40 / pb_ratio=1.30 / aq=1:0.80
Язык : English
Default : Нет
Forced : Нет
Аудио #1
Идентификатор : 2
Формат : AC-3
Формат/Информация : Audio Coding 3
Расширение режима : CM (complete main)
Параметр Endianness формата : Big
Идентификатор кодека : A_AC3
Продолжительность : 1 ч. 29 м.
Вид битрейта : Постоянный
Битрейт : 192 Кбит/сек
Каналы : 2 канала
Расположение каналов : Front: L R
Частота : 48,0 КГц
Метод сжатия : С потерями
Размер потока : 123 Мбайт (4%)
Заголовок : DVO НТВ+ (Владимир Вихров и Людмила Гнилова)
Язык : Russian
Default : Нет
Forced : Нет
Аудио #2
Идентификатор : 3
Формат : AC-3
Формат/Информация : Audio Coding 3
Расширение режима : CM (complete main)
Параметр Endianness формата : Big
Идентификатор кодека : A_AC3
Продолжительность : 1 ч. 29 м.
Вид битрейта : Постоянный
Битрейт : 192 Кбит/сек
Каналы : 2 канала
Расположение каналов : Front: L R
Частота : 48,0 КГц
Метод сжатия : С потерями
Размер потока : 123 Мбайт (4%)
Заголовок : AVO Сербин Юрий Владимирович
Язык : Russian
Default : Нет
Forced : Нет
Аудио #3
Идентификатор : 4
Формат : AC-3
Формат/Информация : Audio Coding 3
Расширение режима : CM (complete main)
Параметр Endianness формата : Big
Идентификатор кодека : A_AC3
Продолжительность : 1 ч. 29 м.
Вид битрейта : Постоянный
Битрейт : 192 Кбит/сек
Каналы : 2 канала
Расположение каналов : Front: L R
Частота : 48,0 КГц
Метод сжатия : С потерями
Размер потока : 123 Мбайт (4%)
Язык : English
Default : Нет
Forced : Нет

Скриншоты


[Цитировать]



Показать сообщения:    

Текущее время: 10-Дек 15:49

Часовой пояс: UTC + 3


Вы не можете начинать темы
Вы не можете отвечать на сообщения
Вы не можете редактировать свои сообщения
Вы не можете удалять свои сообщения
Вы не можете голосовать в опросах
Вы не можете прикреплять файлы к сообщениям
Вы не можете скачивать файлы

!ВНИМАНИЕ!
Сайт не предоставляет электронные версии произведений, а занимается лишь коллекционированием и каталогизацией ссылок, присылаемых и публикуемых на форуме нашими читателями. Если вы являетесь правообладателем какого-либо представленного материала и не желаете, чтобы ссылка на него находилась в нашем каталоге, свяжитесь с нами, и мы незамедлительно удалим ее. Файлы для обмена на трекере предоставлены пользователями сайта, и администрация не несет ответственности за их содержание. Просьба не заливать файлы, защищенные авторскими правами, а также файлы нелегального содержания!