[ Сегодня идет свободное скачивание без начисления Download ]


Статистика раздачи
Нет
 
   
 
Top  
 
 
Евротур / EuroTrip (2004) BDRip 720p Информация о фильме
Название: Евротур
Оригинальное название: EuroTrip
Год выхода: 2004
Жанр: комедия
Режиссер: Джефф Шеффер, Алек Берг, Дэвид Мэндел
В ролях: Скотт Мехловиц, Джекоб Питтс, Мишель Трахтенберг, Трэвис Уэстер, Джессика Бёрс, Кристин Крук, Кэти Мейлс, Ниел Исхаков, Мэтт Дэймон, Винни Джонс
О фильме:
Скотт Томас — выпускник местной школы, которому нужна помощь в изучении немецкого языка, и именно для этих целей он знакомится с жителем Германии по имени Майк и начинает с ним дружескую переписку. Причём Скотт абсолютно уверен в том, что Майк — это парень, и делится с ним своими переживаниями и проблемами, которые возникают у него с девушкой. Но в конце концов Скотт узнаёт, что Майк, точнее Мике — это обворожительная блондинка, которой Скотт очень понравился. И теперь он сделает всё, чтобы увидеться с Мике, даже совершит путешествие по Европе.

Страна: США, Чехия
Студия: Blue Sea Productions Inc., DreamWorks SKG, The Montecito Picture Company
Продолжительность: 01:30:05
Перевод: Профессиональный (дублированный) R5 + Авторский (одноголосый, закадровый) А.Гаврилов + Авторский (одноголосый, закадровый) С.Визгунов + Профессиональный (многоголосый, закадровый) ТРК Україна
Файл
Формат: Matroska
Видео: 1280x720 at 23.976 fps, x264@L4.1, ~7560 kbps avg
Аудио#1: Russian: 48 kHz, AC3, 3/2 (L,C,R,l,r) + LFE ch, ~448.00 kbps avg |Дубляж, R5|
Аудио#2: Russian: 48 kHz, AC3, 3/2 (L,C,R,l,r) + LFE ch, ~640.00 kbps avg |Авторский, А.Гаврилов|
Аудио#3: Russian: 48 kHz, AC3, 3/2 (L,C,R,l,r) + LFE ch, ~640.00 kbps avg |Авторский, С.Визгунов|
Аудио#4: Ukrainian: 48 kHz, AC3, 2/0 (L,R) + LFE ch, ~192.00 kbps avg |Многоголосый закадровый, ТРК Україна|
Аудио#5: English: 48 kHz, AC3, 3/2 (L,C,R,l,r) + LFE ch, ~640.00 kbps avg
Субтитры: Russian (Full), English (SDH)

Знаете ли Вы, что...

Часть фильма, обозначенная как Братислава, снималась в городе Миловице, Чехия. В данном городе располагался штаб советской Центральной Группы Войск в 1968-1991.
Картина является режиссерским дебютом в большом кино Джеффа Шеффера.
Рабочим названием картины было «Ugly Americans», но из-за иракских событий название сочли слишком вызывающим. Затем было рассмотрено несколько других названий, таких как «A Fistful of Euros», «Europe on $07 a Day», «Going Abroad», «Road Trip: Let`s Go Europe!», «Scott Does Europe» и «What a Frau Wants». Но остановились на коротеньком «Eurotrip».
Съемки картины начались 5-го мая 2003 года в Праге. Съемки длились 10 недель, закончившись в середине июля того же года.
Когда Скотти читает письмо от Микки, то смотрит в словаре слово «zussamen». Но если присмотреться в текст, то этого слова нет. А когда камера снимает письмо крупным планом, это слово появляется.

MI

Общее
Уникальный идентификатор : 184872238686436555067665406043133622503 (0x8B151918F778214995E1D187286CB8E7)
Полное имя : Evrotur.2004.TC.3xRus.Ukr.Eng.BDRip.720p.by_potroks.mkv
Формат : Matroska
Версия формата : Version 4 / Version 2
Размер файла : 6,37 Гбайт
Продолжительность : 1 ч. 30 м.
Общий поток : 10,1 Мбит/сек
Название фильма : EuroTrip (2004)
Дата кодирования : UTC 2016-03-31 04:28:44
Программа кодирования : mkvmerge v5.9.0 ('On The Loose') built on Dec 15 2012 16:39:58
Библиотека кодирования : libebml v1.3.0 + libmatroska v1.4.0
Видео
Идентификатор : 1
Формат : AVC
Формат/Информация : Advanced Video Codec
Профиль формата : High@L4.1
Параметр CABAC формата : Да
Параметр ReFrames формата : 9 кадров
Идентификатор кодека : V_MPEG4/ISO/AVC
Продолжительность : 1 ч. 30 м.
Битрейт : 7560 Кбит/сек
Ширина : 1280 пикселей
Высота : 720 пикселей
Соотношение сторон : 16:9
Режим частоты кадров : Постоянный
Частота кадров : 23,976 кадра/сек
Цветовое пространство : YUV
Субдискретизация насыщенности : 4:2:0
Битовая глубина : 8 бит
Тип развёртки : Прогрессивная
Бит/(Пиксели*Кадры) : 0.342
Размер потока : 4,63 Гбайт (73%)
Заголовок : potroks
Библиотека кодирования : x264 core 148 r2665M a01e339
Настройки программы : cabac=1 / ref=9 / deblock=1:-3:-3 / analyse=0x3:0x133 / me=umh / subme=11 / psy=1 / psy_rd=0.99:0.05 / mixed_ref=1 / me_range=48 / chroma_me=1 / trellis=2 / 8x8dct=1 / cqm=0 / deadzone=21,11 / fast_pskip=0 / chroma_qp_offset=-3 / threads=9 / lookahead_threads=2 / sliced_threads=0 / nr=0 / decimate=1 / interlaced=0 / bluray_compat=0 / constrained_intra=0 / bframes=11 / b_pyramid=2 / b_adapt=2 / b_bias=0 / direct=3 / weightb=1 / open_gop=0 / weightp=2 / keyint=240 / keyint_min=23 / scenecut=40 / intra_refresh=0 / rc=2pass / mbtree=0 / bitrate=7560 / ratetol=1.0 / qcomp=0.70 / qpmin=0 / qpmax=69 / qpstep=4 / cplxblur=20.0 / qblur=0.5 / ip_ratio=1.35 / pb_ratio=1.25 / aq=1:0.75
Язык : English
Default : Да
Forced : Нет
Аудио #1
Идентификатор : 2
Формат : AC-3
Формат/Информация : Audio Coding 3
Расширение режима : CM (complete main)
Параметр Endianness формата : Big
Идентификатор кодека : A_AC3
Продолжительность : 1 ч. 30 м.
Вид битрейта : Постоянный
Битрейт : 448 Кбит/сек
Каналы : 6 каналов
Расположение каналов : Front: L C R, Side: L R, LFE
Частота : 48,0 КГц
Метод сжатия : С потерями
Размер потока : 289 Мбайт (4%)
Заголовок : Dub | DD 5.1 @ 448 kbps
Язык : Russian
Default : Нет
Forced : Нет
Аудио #2
Идентификатор : 3
Формат : AC-3
Формат/Информация : Audio Coding 3
Расширение режима : CM (complete main)
Параметр Endianness формата : Big
Идентификатор кодека : A_AC3
Продолжительность : 1 ч. 30 м.
Вид битрейта : Постоянный
Битрейт : 640 Кбит/сек
Каналы : 6 каналов
Расположение каналов : Front: L C R, Side: L R, LFE
Частота : 48,0 КГц
Метод сжатия : С потерями
Размер потока : 412 Мбайт (6%)
Заголовок : AVO | DD 5.1 @ 640 kbps - A.Gavrilov
Язык : Russian
Default : Нет
Forced : Нет
Аудио #3
Идентификатор : 4
Формат : AC-3
Формат/Информация : Audio Coding 3
Расширение режима : CM (complete main)
Параметр Endianness формата : Big
Идентификатор кодека : A_AC3
Продолжительность : 1 ч. 30 м.
Вид битрейта : Постоянный
Битрейт : 640 Кбит/сек
Каналы : 6 каналов
Расположение каналов : Front: L C R, Side: L R, LFE
Частота : 48,0 КГц
Метод сжатия : С потерями
Размер потока : 412 Мбайт (6%)
Заголовок : AVO | DD 5.1 @ 640 kbps - S.Vizgunov
Язык : Russian
Default : Нет
Forced : Нет
Аудио #4
Идентификатор : 5
Формат : AC-3
Формат/Информация : Audio Coding 3
Расширение режима : CM (complete main)
Параметр Endianness формата : Big
Идентификатор кодека : A_AC3
Продолжительность : 1 ч. 30 м.
Вид битрейта : Постоянный
Битрейт : 192 Кбит/сек
Каналы : 2 канала
Расположение каналов : Front: L R
Частота : 48,0 КГц
Метод сжатия : С потерями
Размер потока : 124 Мбайт (2%)
Заголовок : MVO | DD 2.0 @ 192 kbps - ТРК Україна
Язык : Ukrainian
Default : Нет
Forced : Нет
Аудио #5
Идентификатор : 6
Формат : AC-3
Формат/Информация : Audio Coding 3
Расширение режима : CM (complete main)
Параметр Endianness формата : Big
Идентификатор кодека : A_AC3
Продолжительность : 1 ч. 30 м.
Вид битрейта : Постоянный
Битрейт : 640 Кбит/сек
Каналы : 6 каналов
Расположение каналов : Front: L C R, Side: L R, LFE
Частота : 48,0 КГц
Метод сжатия : С потерями
Размер потока : 412 Мбайт (6%)
Заголовок : Original | DD 5.1 @ 640 kbps
Язык : English
Default : Нет
Forced : Нет
Текст #1
Идентификатор : 7
Формат : UTF-8
Идентификатор кодека : S_TEXT/UTF8
Идентификатор кодека/Информация : UTF-8 Plain Text
Заголовок : Full
Язык : Russian
Default : Нет
Forced : Нет
Текст #2
Идентификатор : 8
Формат : UTF-8
Идентификатор кодека : S_TEXT/UTF8
Идентификатор кодека/Информация : UTF-8 Plain Text
Заголовок : SDH
Язык : English
Default : Нет
Forced : Нет
Меню
00:00:00.000 : :(01)00:00:00:000
00:03:00.389 : :(02)00:03:00:389
00:06:31.766 : :(03)00:06:31:766
00:08:28.883 : :(04)00:08:28:883
00:17:49.527 : :(05)00:17:49:527
00:20:03.285 : :(06)00:20:03:285
00:21:13.439 : :(07)00:21:13:439
00:27:11.547 : :(08)00:27:11:547
00:34:57.846 : :(09)00:34:57:846
00:39:05.260 : :(10)00:39:05:260
00:42:43.060 : :(11)00:42:43:060
00:45:24.847 : :(12)00:45:24:847
00:54:19.006 : :(13)00:54:19:006
00:59:43.663 : :(14)00:59:43:663
01:05:05.527 : :(15)01:05:05:527
01:09:15.818 : :(16)01:09:15:818
01:14:42.103 : :(17)01:14:42:103
01:18:02.261 : :(18)01:18:02:261
01:22:44.417 : :(19)01:22:44:417
01:25:07.352 : :(20)01:25:07:352

Скриншоты


[Цитировать]



Показать сообщения:    

Текущее время: 10-Дек 08:00

Часовой пояс: UTC + 3


Вы не можете начинать темы
Вы не можете отвечать на сообщения
Вы не можете редактировать свои сообщения
Вы не можете удалять свои сообщения
Вы не можете голосовать в опросах
Вы не можете прикреплять файлы к сообщениям
Вы не можете скачивать файлы

!ВНИМАНИЕ!
Сайт не предоставляет электронные версии произведений, а занимается лишь коллекционированием и каталогизацией ссылок, присылаемых и публикуемых на форуме нашими читателями. Если вы являетесь правообладателем какого-либо представленного материала и не желаете, чтобы ссылка на него находилась в нашем каталоге, свяжитесь с нами, и мы незамедлительно удалим ее. Файлы для обмена на трекере предоставлены пользователями сайта, и администрация не несет ответственности за их содержание. Просьба не заливать файлы, защищенные авторскими правами, а также файлы нелегального содержания!