[ Сегодня идет свободное скачивание без начисления Download ]


Статистика раздачи
Скачал: [ 1 ]
 
   
 
Top  
 
 
- Geekbrains | АнтиБыдлоКодер (2015) PCRec - Автор (режиссер): Андрей Жариков
Жанр: Программирование
Описание:
Научиться "быдлокодить" — легко. Быстро писать компактные, эффективные, изящные, стабильные программы — намного труднее.
Уроки данного курса помогут повысить уровень своего мастерства в этом нелегком деле и более профессионально подходить к разработке сложных программ.
Чему вы научитесь:
- Изучать нужную профессиональную литературу
- Полностью контролировать процесс разработки с помощью GIT
- Легко и быстро отлаживать программы
- Убирать рутину из тестирования
Продолжительность: 07:57:22
Качество видео: PCRec
Видео: AVC/H.264, 1024x768 Kbps, ~306 - 896 Kbps
Аудио: AAC, 2 ch, 85 Kbps

Программа курса:

Урок 1. Книги для программиста (Обзор)
Поверхностный обзор книг для программиста. "Библия" программиста; Нестареющие хиты всех времен; Книги по алгоритмам; Книги по разработке в целом; Книги по личному развитию
Урок 2. Система управления версиями файлов GIT
Как держать под контролем исходный код; Как использовать GIT для работы в команде; Как быстро освоить GIT; Книги, программы и сервисы
Урок 3. Принципы эффективной отладки
Что необходимо помнить при отладке; Методичный отлов ошибок вместо хаотичного; Основные приемы отладки; Интерактивные отладчики; Вспомогательные инструменты
Урок 4. Автоматизированное тестирование
Зачем нужна автоматизация тестирования; Виды автоматизированного тестирования; Unit-тесты; Интеграционные тесты; Приемочные тесты; TDD/BDD; Инструментарий

Mediainfo:

Общее
Полное имя                               : C:\torrent\AntiBydloKoder\Урок 1. Книги для программиста\1_1.mp4
Формат                                   : MPEG-4
Профиль формата                          : Base Media / Version 2
Идентификатор кодека                     : mp42 (mp42/isom)
Размер файла                             : 180 Мбайт
Продолжительность                        : 1 ч. 3 м.
Режим общего битрейта                    : Переменный
Общий поток                              : 394 Кбит/сек
Дата кодирования                         : UTC 2015-01-24 12:33:37
Дата пометки                             : UTC 2015-01-24 12:45:14
Видео
Идентификатор                            : 1
Формат                                   : AVC
Формат/Информация                        : Advanced Video Codec
Профиль формата                          : [url=mailto:[email protected]][email protected][/url]
Параметр CABAC формата                   : Да
Параметр ReFrames формата                : 5 кадров
Идентификатор кодека                     : avc1
Идентификатор кодека/Информация          : Advanced Video Coding
Продолжительность                        : 1 ч. 3 м.
Битрейт                                  : 307 Кбит/сек
Ширина                                   : 1024 пикселя
Высота                                   : 768 пикселей
Соотношение сторон                       : 4:3
Режим частоты кадров                     : Постоянный
Частота кадров                           : 12,000 кадров/сек
Цветовое пространство                    : YUV
Субдискретизация насыщенности            : 4:2:0
Битовая глубина                          : 8 бит
Тип развёртки                            : Прогрессивная
Бит/(Пиксели*Кадры)                      : 0.033
Размер потока                            : 140 Мбайт (78%)
Дата кодирования                         : UTC 2015-01-24 12:33:37
Дата пометки                             : UTC 2015-01-24 12:45:13
Основные цвета                           : BT.709
Характеристики трансфера                 : BT.709
Коэффициенты матрицы                     : BT.709
Аудио
Идентификатор                            : 2
Формат                                   : AAC
Формат/Информация                        : Advanced Audio Codec
Профиль формата                          : LC
Идентификатор кодека                     : 40
Продолжительность                        : 1 ч. 3 м.
Вид битрейта                             : Переменный
Битрейт                                  : 85,0 Кбит/сек
Максимальный битрейт                     : 93,4 Кбит/сек
Каналы                                   : 2 канала
Расположение каналов                     : Front: L R
Частота                                  : 44,1 КГц
Частота кадров                           : 43,066 кадра/сек (1024 spf)
Метод сжатия                             : С потерями
Размер потока                            : 38,8 Мбайт (22%)
Дата кодирования                         : UTC 2015-01-24 12:33:37
Дата пометки                             : UTC 2015-01-24 12:37:09
Общее
Полное имя                               : C:\torrent\AntiBydloKoder\Урок 1. Книги для программиста\1_2.mp4
Формат                                   : MPEG-4
Профиль формата                          : Base Media / Version 2
Идентификатор кодека                     : mp42 (mp42/isom)
Размер файла                             : 150 Мбайт
Продолжительность                        : 53 м.
Режим общего битрейта                    : Переменный
Общий поток                              : 394 Кбит/сек
Дата кодирования                         : UTC 2015-01-24 12:33:48
Дата пометки                             : UTC 2015-01-24 12:44:29
Видео
Идентификатор                            : 1
Формат                                   : AVC
Формат/Информация                        : Advanced Video Codec
Профиль формата                          : [url=mailto:[email protected]][email protected][/url]
Параметр CABAC формата                   : Да
Параметр ReFrames формата                : 5 кадров
Идентификатор кодека                     : avc1
Идентификатор кодека/Информация          : Advanced Video Coding
Продолжительность                        : 53 м.
Битрейт                                  : 306 Кбит/сек
Ширина                                   : 1024 пикселя
Высота                                   : 768 пикселей
Соотношение сторон                       : 4:3
Режим частоты кадров                     : Постоянный
Частота кадров                           : 12,000 кадров/сек
Цветовое пространство                    : YUV
Субдискретизация насыщенности            : 4:2:0
Битовая глубина                          : 8 бит
Тип развёртки                            : Прогрессивная
Бит/(Пиксели*Кадры)                      : 0.032
Размер потока                            : 116 Мбайт (78%)
Дата кодирования                         : UTC 2015-01-24 12:33:48
Дата пометки                             : UTC 2015-01-24 12:44:28
Основные цвета                           : BT.709
Характеристики трансфера                 : BT.709
Коэффициенты матрицы                     : BT.709
Аудио
Идентификатор                            : 2
Формат                                   : AAC
Формат/Информация                        : Advanced Audio Codec
Профиль формата                          : LC
Идентификатор кодека                     : 40
Продолжительность                        : 53 м.
Вид битрейта                             : Переменный
Битрейт                                  : 85,0 Кбит/сек
Максимальный битрейт                     : 95,2 Кбит/сек
Каналы                                   : 2 канала
Расположение каналов                     : Front: L R
Частота                                  : 44,1 КГц
Частота кадров                           : 43,066 кадра/сек (1024 spf)
Метод сжатия                             : С потерями
Размер потока                            : 32,3 Мбайт (22%)
Дата кодирования                         : UTC 2015-01-24 12:33:48
Дата пометки                             : UTC 2015-01-24 12:36:47
Общее
Полное имя                               : C:\torrent\AntiBydloKoder\Урок 2. Система управления версиями файлов GIT\2_1.mp4
Формат                                   : MPEG-4
Профиль формата                          : Base Media / Version 2
Идентификатор кодека                     : mp42 (mp42/isom)
Размер файла                             : 438 Мбайт
Продолжительность                        : 1 ч. 1 м.
Режим общего битрейта                    : Переменный
Общий поток                              : 993 Кбит/сек
Дата кодирования                         : UTC 2014-04-26 17:36:11
Дата пометки                             : UTC 2014-04-26 18:08:39
Видео
Идентификатор                            : 1
Формат                                   : AVC
Формат/Информация                        : Advanced Video Codec
Профиль формата                          : [url=mailto:[email protected]][email protected][/url]
Параметр CABAC формата                   : Да
Параметр ReFrames формата                : 5 кадров
Идентификатор кодека                     : avc1
Идентификатор кодека/Информация          : Advanced Video Coding
Продолжительность                        : 1 ч. 1 м.
Битрейт                                  : 896 Кбит/сек
Ширина                                   : 1024 пикселя
Высота                                   : 768 пикселей
Соотношение сторон                       : 4:3
Режим частоты кадров                     : Постоянный
Частота кадров                           : 12,000 кадров/сек
Цветовое пространство                    : YUV
Субдискретизация насыщенности            : 4:2:0
Битовая глубина                          : 8 бит
Тип развёртки                            : Прогрессивная
Бит/(Пиксели*Кадры)                      : 0.095
Размер потока                            : 395 Мбайт (90%)
Дата кодирования                         : UTC 2014-04-26 17:36:11
Дата пометки                             : UTC 2014-04-26 18:08:39
Основные цвета                           : BT.709
Характеристики трансфера                 : BT.709
Коэффициенты матрицы                     : BT.709
Аудио
Идентификатор                            : 2
Формат                                   : AAC
Формат/Информация                        : Advanced Audio Codec
Профиль формата                          : LC
Идентификатор кодека                     : 40
Продолжительность                        : 1 ч. 1 м.
Вид битрейта                             : Переменный
Битрейт                                  : 96,0 Кбит/сек
Максимальный битрейт                     : 107 Кбит/сек
Каналы                                   : 2 канала
Расположение каналов                     : Front: L R
Частота                                  : 44,1 КГц
Частота кадров                           : 43,066 кадра/сек (1024 spf)
Метод сжатия                             : С потерями
Размер потока                            : 41,6 Мбайт (9%)
Дата кодирования                         : UTC 2014-04-26 17:36:11
Дата пометки                             : UTC 2014-04-26 17:38:51
Общее
Полное имя                               : C:\torrent\AntiBydloKoder\Урок 2. Система управления версиями файлов GIT\2_2.mp4
Формат                                   : MPEG-4
Профиль формата                          : Base Media / Version 2
Идентификатор кодека                     : mp42 (mp42/isom)
Размер файла                             : 317 Мбайт
Продолжительность                        : 44 м.
Режим общего битрейта                    : Переменный
Общий поток                              : 988 Кбит/сек
Дата кодирования                         : UTC 2014-04-26 18:31:09
Дата пометки                             : UTC 2014-04-26 18:52:19
Видео
Идентификатор                            : 1
Формат                                   : AVC
Формат/Информация                        : Advanced Video Codec
Профиль формата                          : [url=mailto:[email protected]][email protected][/url]
Параметр CABAC формата                   : Да
Параметр ReFrames формата                : 5 кадров
Идентификатор кодека                     : avc1
Идентификатор кодека/Информация          : Advanced Video Coding
Продолжительность                        : 44 м.
Битрейт                                  : 891 Кбит/сек
Ширина                                   : 1024 пикселя
Высота                                   : 768 пикселей
Соотношение сторон                       : 4:3
Режим частоты кадров                     : Постоянный
Частота кадров                           : 12,000 кадров/сек
Цветовое пространство                    : YUV
Субдискретизация насыщенности            : 4:2:0
Битовая глубина                          : 8 бит
Тип развёртки                            : Прогрессивная
Бит/(Пиксели*Кадры)                      : 0.094
Размер потока                            : 286 Мбайт (90%)
Дата кодирования                         : UTC 2014-04-26 18:31:09
Дата пометки                             : UTC 2014-04-26 18:52:19
Основные цвета                           : BT.709
Характеристики трансфера                 : BT.709
Коэффициенты матрицы                     : BT.709
Аудио
Идентификатор                            : 2
Формат                                   : AAC
Формат/Информация                        : Advanced Audio Codec
Профиль формата                          : LC
Идентификатор кодека                     : 40
Продолжительность                        : 44 м.
Вид битрейта                             : Переменный
Битрейт                                  : 96,0 Кбит/сек
Максимальный битрейт                     : 107 Кбит/сек
Каналы                                   : 2 канала
Расположение каналов                     : Front: L R
Частота                                  : 44,1 КГц
Частота кадров                           : 43,066 кадра/сек (1024 spf)
Метод сжатия                             : С потерями
Размер потока                            : 30,3 Мбайт (10%)
Дата кодирования                         : UTC 2014-04-26 18:31:09
Дата пометки                             : UTC 2014-04-26 18:32:51
Общее
Полное имя                               : C:\torrent\AntiBydloKoder\Урок 3. Принципы эффективной отладки\3_1.mp4
Формат                                   : MPEG-4
Профиль формата                          : Base Media / Version 2
Идентификатор кодека                     : mp42 (mp42/isom)
Размер файла                             : 387 Мбайт
Продолжительность                        : 54 м.
Режим общего битрейта                    : Переменный
Общий поток                              : 998 Кбит/сек
Дата кодирования                         : UTC 2014-07-12 17:00:13
Дата пометки                             : UTC 2014-07-12 17:08:51
Видео
Идентификатор                            : 1
Формат                                   : AVC
Формат/Информация                        : Advanced Video Codec
Профиль формата                          : [url=mailto:[email protected]][email protected][/url]
Параметр CABAC формата                   : Да
Параметр ReFrames формата                : 5 кадров
Идентификатор кодека                     : avc1
Идентификатор кодека/Информация          : Advanced Video Coding
Продолжительность                        : 54 м.
Битрейт                                  : 907 Кбит/сек
Ширина                                   : 1024 пикселя
Высота                                   : 768 пикселей
Соотношение сторон                       : 4:3
Режим частоты кадров                     : Постоянный
Частота кадров                           : 12,000 кадров/сек
Цветовое пространство                    : YUV
Субдискретизация насыщенности            : 4:2:0
Битовая глубина                          : 8 бит
Тип развёртки                            : Прогрессивная
Бит/(Пиксели*Кадры)                      : 0.096
Размер потока                            : 352 Мбайт (91%)
Дата кодирования                         : UTC 2014-07-12 17:00:13
Дата пометки                             : UTC 2014-07-12 17:08:50
Основные цвета                           : BT.709
Характеристики трансфера                 : BT.709
Коэффициенты матрицы                     : BT.709
Аудио
Идентификатор                            : 2
Формат                                   : AAC
Формат/Информация                        : Advanced Audio Codec
Профиль формата                          : LC
Идентификатор кодека                     : 40
Продолжительность                        : 54 м.
Вид битрейта                             : Переменный
Битрейт                                  : 88,7 Кбит/сек
Максимальный битрейт                     : 98,6 Кбит/сек
Каналы                                   : 2 канала
Расположение каналов                     : Front: L R
Частота                                  : 44,1 КГц
Частота кадров                           : 43,066 кадра/сек (1024 spf)
Метод сжатия                             : С потерями
Размер потока                            : 34,4 Мбайт (9%)
Дата кодирования                         : UTC 2014-07-12 17:00:13
Дата пометки                             : UTC 2014-07-12 17:02:43
Общее
Полное имя                               : C:\torrent\AntiBydloKoder\Урок 3. Принципы эффективной отладки\3_2.mp4
Формат                                   : MPEG-4
Профиль формата                          : Base Media / Version 2
Идентификатор кодека                     : mp42 (mp42/isom)
Размер файла                             : 506 Мбайт
Продолжительность                        : 1 ч. 10 м.
Режим общего битрейта                    : Переменный
Общий поток                              : 999 Кбит/сек
Дата кодирования                         : UTC 2014-07-12 17:00:05
Дата пометки                             : UTC 2014-07-12 17:18:41
Видео
Идентификатор                            : 1
Формат                                   : AVC
Формат/Информация                        : Advanced Video Codec
Профиль формата                          : [url=mailto:[email protected]][email protected][/url]
Параметр CABAC формата                   : Да
Параметр ReFrames формата                : 5 кадров
Идентификатор кодека                     : avc1
Идентификатор кодека/Информация          : Advanced Video Coding
Продолжительность                        : 1 ч. 10 м.
Битрейт                                  : 908 Кбит/сек
Ширина                                   : 1024 пикселя
Высота                                   : 768 пикселей
Соотношение сторон                       : 4:3
Режим частоты кадров                     : Постоянный
Частота кадров                           : 12,000 кадров/сек
Цветовое пространство                    : YUV
Субдискретизация насыщенности            : 4:2:0
Битовая глубина                          : 8 бит
Тип развёртки                            : Прогрессивная
Бит/(Пиксели*Кадры)                      : 0.096
Размер потока                            : 460 Мбайт (91%)
Дата кодирования                         : UTC 2014-07-12 17:00:05
Дата пометки                             : UTC 2014-07-12 17:18:41
Основные цвета                           : BT.709
Характеристики трансфера                 : BT.709
Коэффициенты матрицы                     : BT.709
Аудио
Идентификатор                            : 2
Формат                                   : AAC
Формат/Информация                        : Advanced Audio Codec
Профиль формата                          : LC
Идентификатор кодека                     : 40
Продолжительность                        : 1 ч. 10 м.
Вид битрейта                             : Переменный
Битрейт                                  : 88,3 Кбит/сек
Максимальный битрейт                     : 97,1 Кбит/сек
Каналы                                   : 2 канала
Расположение каналов                     : Front: L R
Частота                                  : 44,1 КГц
Частота кадров                           : 43,066 кадра/сек (1024 spf)
Метод сжатия                             : С потерями
Размер потока                            : 44,7 Мбайт (9%)
Дата кодирования                         : UTC 2014-07-12 17:00:05
Дата пометки                             : UTC 2014-07-12 17:03:07
Общее
Полное имя                               : C:\torrent\AntiBydloKoder\Урок 4. Автоматизированное тестирование\4_1.mp4
Формат                                   : MPEG-4
Профиль формата                          : Base Media / Version 2
Идентификатор кодека                     : mp42 (mp42/isom)
Размер файла                             : 435 Мбайт
Продолжительность                        : 1 ч. 0 м.
Режим общего битрейта                    : Переменный
Общий поток                              : 1000 Кбит/сек
Дата кодирования                         : UTC 2014-06-14 16:56:53
Дата пометки                             : UTC 2014-06-14 17:06:21
Видео
Идентификатор                            : 1
Формат                                   : AVC
Формат/Информация                        : Advanced Video Codec
Профиль формата                          : [url=mailto:[email protected]][email protected][/url]
Параметр CABAC формата                   : Да
Параметр ReFrames формата                : 5 кадров
Идентификатор кодека                     : avc1
Идентификатор кодека/Информация          : Advanced Video Coding
Продолжительность                        : 1 ч. 0 м.
Битрейт                                  : 909 Кбит/сек
Ширина                                   : 1024 пикселя
Высота                                   : 768 пикселей
Соотношение сторон                       : 4:3
Режим частоты кадров                     : Постоянный
Частота кадров                           : 12,000 кадров/сек
Цветовое пространство                    : YUV
Субдискретизация насыщенности            : 4:2:0
Битовая глубина                          : 8 бит
Тип развёртки                            : Прогрессивная
Бит/(Пиксели*Кадры)                      : 0.096
Размер потока                            : 396 Мбайт (91%)
Дата кодирования                         : UTC 2014-06-14 16:56:53
Дата пометки                             : UTC 2014-06-14 17:06:21
Основные цвета                           : BT.709
Характеристики трансфера                 : BT.709
Коэффициенты матрицы                     : BT.709
Аудио
Идентификатор                            : 2
Формат                                   : AAC
Формат/Информация                        : Advanced Audio Codec
Профиль формата                          : LC
Идентификатор кодека                     : 40
Продолжительность                        : 1 ч. 0 м.
Вид битрейта                             : Переменный
Битрейт                                  : 87,7 Кбит/сек
Максимальный битрейт                     : 97,0 Кбит/сек
Каналы                                   : 2 канала
Расположение каналов                     : Front: L R
Частота                                  : 44,1 КГц
Частота кадров                           : 43,066 кадра/сек (1024 spf)
Метод сжатия                             : С потерями
Размер потока                            : 38,2 Мбайт (9%)
Дата кодирования                         : UTC 2014-06-14 16:56:53
Дата пометки                             : UTC 2014-06-14 16:59:34
Общее
Полное имя                               : C:\torrent\AntiBydloKoder\Урок 4. Автоматизированное тестирование\4_2.mp4
Формат                                   : MPEG-4
Профиль формата                          : Base Media / Version 2
Идентификатор кодека                     : mp42 (mp42/isom)
Размер файла                             : 478 Мбайт
Продолжительность                        : 1 ч. 7 м.
Режим общего битрейта                    : Переменный
Общий поток                              : 983 Кбит/сек
Дата кодирования                         : UTC 2014-06-14 16:51:28
Дата пометки                             : UTC 2014-06-14 17:10:05
Видео
Идентификатор                            : 1
Формат                                   : AVC
Формат/Информация                        : Advanced Video Codec
Профиль формата                          : [url=mailto:[email protected]][email protected][/url]
Параметр CABAC формата                   : Да
Параметр ReFrames формата                : 5 кадров
Идентификатор кодека                     : avc1
Идентификатор кодека/Информация          : Advanced Video Coding
Продолжительность                        : 1 ч. 7 м.
Битрейт                                  : 893 Кбит/сек
Ширина                                   : 1024 пикселя
Высота                                   : 768 пикселей
Соотношение сторон                       : 4:3
Режим частоты кадров                     : Постоянный
Частота кадров                           : 12,000 кадров/сек
Цветовое пространство                    : YUV
Субдискретизация насыщенности            : 4:2:0
Битовая глубина                          : 8 бит
Тип развёртки                            : Прогрессивная
Бит/(Пиксели*Кадры)                      : 0.095
Размер потока                            : 434 Мбайт (91%)
Дата кодирования                         : UTC 2014-06-14 16:51:28
Дата пометки                             : UTC 2014-06-14 17:10:05
Основные цвета                           : BT.709
Характеристики трансфера                 : BT.709
Коэффициенты матрицы                     : BT.709
Аудио
Идентификатор                            : 2
Формат                                   : AAC
Формат/Информация                        : Advanced Audio Codec
Профиль формата                          : LC
Идентификатор кодека                     : 40
Продолжительность                        : 1 ч. 7 м.
Вид битрейта                             : Переменный
Битрейт                                  : 87,7 Кбит/сек
Максимальный битрейт                     : 98,5 Кбит/сек
Каналы                                   : 2 канала
Расположение каналов                     : Front: L R
Частота                                  : 44,1 КГц
Частота кадров                           : 43,066 кадра/сек (1024 spf)
Метод сжатия                             : С потерями
Размер потока                            : 42,7 Мбайт (9%)
Дата кодирования                         : UTC 2014-06-14 16:51:28
Дата пометки                             : UTC 2014-06-14 16:52:47
Скриншоты:

[Цитировать]



Показать сообщения:    

Текущее время: 05-Дек 17:36

Часовой пояс: UTC + 3


Вы не можете начинать темы
Вы не можете отвечать на сообщения
Вы не можете редактировать свои сообщения
Вы не можете удалять свои сообщения
Вы не можете голосовать в опросах
Вы не можете прикреплять файлы к сообщениям
Вы не можете скачивать файлы

!ВНИМАНИЕ!
Сайт не предоставляет электронные версии произведений, а занимается лишь коллекционированием и каталогизацией ссылок, присылаемых и публикуемых на форуме нашими читателями. Если вы являетесь правообладателем какого-либо представленного материала и не желаете, чтобы ссылка на него находилась в нашем каталоге, свяжитесь с нами, и мы незамедлительно удалим ее. Файлы для обмена на трекере предоставлены пользователями сайта, и администрация не несет ответственности за их содержание. Просьба не заливать файлы, защищенные авторскими правами, а также файлы нелегального содержания!