[ Сегодня идет свободное скачивание без начисления Download ]


Статистика раздачи
Нет
 
   
 
Top  
 
 
ФизрукСезон 3 с 1 по 20 (из 20)Год выхода: 2016
Жанр: Комедия
Режиссер: Фёдор Стуков, Сергей Сенцов
В ролях: Дмитрий Нагиев, Александр Гордон, Полина Гренц, Анастасия Панина, Владимир Сычев, Даниил Вахрушев, Андрей Крыжний, Артур Сопельник, Оксана Сидоренко, Карина Мишулина
О фильме:
«Физрук 3 сезон» начинается с того, что с Фомы сняты все обвинения. Оказавшись на свободе, он видит, что жизнь его друзей изменилась: у Психа кризис среднего возраста, Таня строит новые отношения, а Мамаева, лишившись бизнеса отца, сводит концы с концами. Но физрук умеет решать проблемы. Фоме предстоит вернуть «отжатый» бизнес Саше как законной наследнице, завоевать Татьяну, и решить вопрос с гангстабоссом Леной, на стороне которой деньги, связи и армия головорезов. Зато в арсенале Фомы надежная команда, новая невероятная схема, в которой замешаны школа, Татьяна Александровна, друг детства и духовный наставник Миша по кличке «Буддист» и даже президент России. Все вместе они отправятся на поиски истины, счастья и справедливости. У них на всех всего одно заветное желание, и компаньоны уверены, что оно обязательно сбудется.
Выпущено: Россия, ТНТ
Продолжительность: 3 Х ~ 00:25:00
Перевод: Не требуется

Файл
Кодек: х264
Качество: SATRip-AVC
Видео: 720x396 (16:9), 25,000 fps, х264 ~ 2000 kbps avg, 0.281 bit/pixel
Звук: 48,0 kHz, Audio Coding 3, 2 ch, ~192 kbps avg

Инфо

Общее
Уникальный идентификатор : 240499348134364246685017434800668419327 (0xB4EE7D5796E34567823F4B660CE624FF)
Полное имя : D:ВидеоFizruk-3. 2016.SATRip(AVC) by Vovan3661.Fizruk-3. 2016.SATRip(AVC) by Vovan366.mkv
Формат : Matroska
Версия формата : Version 2
Размер файла : 371 Мбайт
Продолжительность : 23 м.
Общий поток : 2194 Кбит/сек
Дата кодирования : UTC 2016-04-05 13:09:59
Программа кодирования : mkvmerge v7.8.0 ('River Man') 32bit built on Apr 3 2015 12:11:22
Библиотека кодирования : libebml v1.3.1 + libmatroska v1.4.2
Видео
Идентификатор : 1
Формат : AVC
Формат/Информация : Advanced Video Codec
Профиль формата : High@L4.1
Параметр CABAC формата : Да
Параметр ReFrames формата : 10 кадров
Идентификатор кодека : V_MPEG4/ISO/AVC
Продолжительность : 23 м.
Битрейт : 2000 Кбит/сек
Ширина : 720 пикселей
Высота : 396 пикселей
Соотношение сторон : 16:9
Режим частоты кадров : Постоянный
Частота кадров : 25,000 кадров/сек
Цветовое пространство : YUV
Субдискретизация насыщенности : 4:2:0
Битовая глубина : 8 бит
Тип развёртки : Прогрессивная
Бит/(Пиксели*Кадры) : 0.281
Размер потока : 331 Мбайт (89%)
Библиотека кодирования : x264 core 146 r2538 121396c
Настройки программы : cabac=1 / ref=10 / deblock=1:-2:-2 / analyse=0x3:0x113 / me=umh / subme=10 / psy=1 / psy_rd=1.01:0.10 / mixed_ref=1 / me_range=32 / chroma_me=1 / trellis=2 / 8x8dct=1 / cqm=0 / deadzone=21,11 / fast_pskip=0 / chroma_qp_offset=-3 / threads=6 / lookahead_threads=1 / sliced_threads=0 / nr=0 / decimate=0 / interlaced=0 / bluray_compat=0 / constrained_intra=0 / bframes=10 / b_pyramid=2 / b_adapt=2 / b_bias=0 / direct=3 / weightb=1 / open_gop=0 / weightp=2 / keyint=250 / keyint_min=25 / scenecut=40 / intra_refresh=0 / rc=2pass / mbtree=0 / bitrate=2000 / ratetol=1.0 / qcomp=0.60 / qpmin=0 / qpmax=69 / qpstep=4 / cplxblur=20.0 / qblur=0.5 / ip_ratio=1.40 / pb_ratio=1.30 / aq=1:1.00
Default : Да
Forced : Нет
Основные цвета : BT.601 PAL
Характеристики трансфера : BT.470 System B, BT.470 System G
Коэффициенты матрицы : BT.601
Аудио
Идентификатор : 2
Формат : AC-3
Формат/Информация : Audio Coding 3
Расширение режима : CM (complete main)
Параметр Endianness формата : Big
Идентификатор кодека : A_AC3
Продолжительность : 23 м.
Вид битрейта : Постоянный
Битрейт : 192 Кбит/сек
Каналы : 2 канала
Расположение каналов : Front: L R
Частота : 48,0 КГц
Битовая глубина : 16 бит
Метод сжатия : С потерями
Размер потока : 32,5 Мбайт (9%)
Default : Да
Forced : Нет

Скриншоты





Последний раз редактировалось: Henkok (2016-05-11 10:38), всего редактировалось 5 раз(а)

[Цитировать]

Топик был перенесен из форума Новинки кинопроката в форум Отечественные сериалы
Henkok



Показать сообщения:    

Текущее время: 07-Дек 19:29

Часовой пояс: UTC + 3


Вы не можете начинать темы
Вы не можете отвечать на сообщения
Вы не можете редактировать свои сообщения
Вы не можете удалять свои сообщения
Вы не можете голосовать в опросах
Вы не можете прикреплять файлы к сообщениям
Вы не можете скачивать файлы

!ВНИМАНИЕ!
Сайт не предоставляет электронные версии произведений, а занимается лишь коллекционированием и каталогизацией ссылок, присылаемых и публикуемых на форуме нашими читателями. Если вы являетесь правообладателем какого-либо представленного материала и не желаете, чтобы ссылка на него находилась в нашем каталоге, свяжитесь с нами, и мы незамедлительно удалим ее. Файлы для обмена на трекере предоставлены пользователями сайта, и администрация не несет ответственности за их содержание. Просьба не заливать файлы, защищенные авторскими правами, а также файлы нелегального содержания!