[ Сегодня идет свободное скачивание без начисления Download ]


Статистика раздачи
Нет
 
   
 
Top  
 
 
Если наступит завтра / If Tomorrow Comes (1986) DVDRip-AVC Информация о фильме
Название: Если наступит завтра
Оригинальное название: If Tomorrow Comes
Год выхода: 1986
Жанр: Мелодрама, приключения, триллер, детектив
Режиссер: Джерри Лондон
В ролях: Мэдолин Смит-Осборн, Том Беренджер, Дэвид Кит, Лиам Нисон, Джек Уэстон, Ричард Кайли, Джозеф Кортезе, Джордж ДиЧенцо, Сьюзен Хесс, Джеффри Джонс, Энн Шедин
О фильме:
Героиня одноименного бестселлера популярного американского писателя Сиднея Шелдона скромная служащая банка Трэйси Уитни стоит на пороге счастья и успеха. Она обручена с любимым человеком, который, к тому же, баснословно богат и принадлежит к высшим кругам общества. И вот, из-за страшных и нелепых обстоятельств, все идет прахом: Трэйси оказывается в тюрьме, «подставленная» мафией и преданная любимым. Но ее не так-то просто сломить: всю свою железную волю, острый ум и неотразимое женское обаяние она направляет на то, чтобы отомстить…
Страна: США, CBS Entertainment Production
Продолжительность: 02:12:12 + 01:28:53 + 01:30:09
Перевод: Профессиональный многоголосый, авторский
Файл
Кодек: x264
Качество: DVDRip-AVC
Видео: MPEG-4 AVC, 2200 Кбит/с, 720x572@768x572
Звук:
Аудио 1: Dolby AC3 48kHz 2ch 192kbps Студия Кравец
Аудио 2: Dolby AC3 48kHz 2ch 192kbps НТВ-старый
Аудио 3: Dolby AC3 48kHz 2ch 192kbps Горчаков
Аудио 4: Dolby AC3 48kHz 2ch 192kbps English
Субтитры: Русские

Медиа-Инфо

raw [info]: 720x572p 16:15 @ 25/1 fps (cfr)
x264 [info]: using SAR=16/15
x264 [info]: using cpu capabilities: MMX2 SSE2Fast SSSE3 SSE4.2 AVX
x264 [info]: profile High, level 4.1
x264 [info]: frame I:1450 Avg QP:16.56 size: 76997
x264 [info]: frame P:45206 Avg QP:20.04 size: 25568
x264 [info]: frame B:151634 Avg QP:21.86 size: 6046
============================================================================================================
Общее
Уникальный идентификатор : 249212630056954604524626087467927444232 (0xBB7C9B4F071EC935B72E99FE40539B08)
Полное имя : R:МОИ РИПЫЕсли наступит завтра_1986-DVDRip-AVCЗавтра-1.mkv
Формат : Matroska
Версия формата : Version 2
Размер файла : 2,75 Гбайт
Продолжительность : 2 ч. 12 м.
Общий поток : 2973 Кбит/сек
Дата кодирования : UTC 2016-04-03 22:25:14
Программа кодирования : mkvmerge v5.8.0 ('No Sleep / Pillow') built on Sep 2 2012 15:37:04
Библиотека кодирования : libebml v1.2.3 + libmatroska v1.3.0
DURATION : 02:10:24.607000000
NUMBER_OF_FRAMES : 895
NUMBER_OF_BYTES : 84524
_STATISTICS_WRITING_APP : mkvmerge v7.1.0 ('Good Love') 64bit built on Jul 27 2014 13:06:55
_STATISTICS_WRITING_DATE_UTC : 2015-01-05 21:44:39
_STATISTICS_TAGS : BPS DURATION NUMBER_OF_FRAMES NUMBER_OF_BYTES
Видео
Идентификатор : 1
Формат : AVC
Формат/Информация : Advanced Video Codec
Профиль формата : High@L4.1
Параметр CABAC формата : Да
Параметр ReFrames формата : 14 кадров
Идентификатор кодека : V_MPEG4/ISO/AVC
Продолжительность : 2 ч. 12 м.
Битрейт : 2200 Кбит/сек
Ширина : 720 пикселей
Высота : 572 пикселя
Соотношение сторон : 4:3
Режим частоты кадров : Постоянный
Частота кадров : 25,000 кадров/сек
Цветовое пространство : YUV
Субдискретизация насыщенности : 4:2:0
Битовая глубина : 8 бит
Тип развёртки : Прогрессивная
Бит/(Пиксели*Кадры) : 0.214
Размер потока : 1,98 Гбайт (72%)
Библиотека кодирования : x264 core 148 r2638 7599210
Настройки программы : cabac=1 / ref=14 / deblock=1:-2:-2 / analyse=0x3:0x133 / me=umh / subme=10 / psy=1 / psy_rd=1.05:0.13 / mixed_ref=1 / me_range=32 / chroma_me=1 / trellis=2 / 8x8dct=1 / cqm=0 / deadzone=21,11 / fast_pskip=0 / chroma_qp_offset=-3 / threads=12 / lookahead_threads=3 / sliced_threads=0 / nr=0 / decimate=0 / interlaced=0 / bluray_compat=0 / constrained_intra=0 / bframes=10 / b_pyramid=2 / b_adapt=2 / b_bias=0 / direct=3 / weightb=1 / open_gop=0 / weightp=2 / keyint=250 / keyint_min=25 / scenecut=40 / intra_refresh=0 / rc=2pass / mbtree=0 / bitrate=2200 / ratetol=1.0 / qcomp=0.63 / qpmin=0 / qpmax=39 / qpstep=4 / cplxblur=20.0 / qblur=0.5 / ip_ratio=1.40 / pb_ratio=1.30 / aq=1:1.00
Язык : English
Default : Да
Forced : Нет
Цветовой диапазон : Limited
Основные цвета : BT.601 PAL
Характеристики трансфера : BT.470 System B, BT.470 System G
Коэффициенты матрицы : BT.601
Аудио #1
Идентификатор : 2
Формат : AC-3
Формат/Информация : Audio Coding 3
Профиль формата : Dolby Digital
Расширение режима : CM (complete main)
Параметр Endianness формата : Big
Идентификатор кодека : A_AC3
Продолжительность : 2 ч. 12 м.
Вид битрейта : Постоянный
Битрейт : 192 Кбит/сек
Каналы : 2 канала
Расположение каналов : Front: L R
Частота : 48,0 КГц
Метод сжатия : С потерями
Размер потока : 182 Мбайт (6%)
Заголовок : Студия Кравец
Язык : Russian
Default : Да
Forced : Нет
Аудио #2
Идентификатор : 3
Формат : AC-3
Формат/Информация : Audio Coding 3
Профиль формата : Dolby Digital
Расширение режима : CM (complete main)
Параметр Endianness формата : Big
Идентификатор кодека : A_AC3
Продолжительность : 2 ч. 12 м.
Вид битрейта : Постоянный
Битрейт : 192 Кбит/сек
Каналы : 2 канала
Расположение каналов : Front: L R
Частота : 48,0 КГц
Метод сжатия : С потерями
Размер потока : 182 Мбайт (6%)
Заголовок : НТВ-старый
Язык : Russian
Default : Нет
Forced : Нет
Аудио #3
Идентификатор : 4
Формат : AC-3
Формат/Информация : Audio Coding 3
Расширение режима : CM (complete main)
Параметр Endianness формата : Big
Идентификатор кодека : A_AC3
Продолжительность : 2 ч. 12 м.
Вид битрейта : Постоянный
Битрейт : 192 Кбит/сек
Каналы : 2 канала
Расположение каналов : Front: L R
Частота : 48,0 КГц
Метод сжатия : С потерями
Размер потока : 182 Мбайт (6%)
Заголовок : Горчаков Василий
Язык : Russian
Default : Нет
Forced : Нет
Аудио #4
Идентификатор : 5
Формат : AC-3
Формат/Информация : Audio Coding 3
Расширение режима : CM (complete main)
Параметр Endianness формата : Big
Идентификатор кодека : A_AC3
Продолжительность : 2 ч. 12 м.
Вид битрейта : Постоянный
Битрейт : 192 Кбит/сек
Каналы : 2 канала
Расположение каналов : Front: L R
Частота : 48,0 КГц
Метод сжатия : С потерями
Размер потока : 182 Мбайт (6%)
Заголовок : Оригинальный
Язык : English
Default : Нет
Forced : Нет
Текст
Идентификатор : 6
Формат : UTF-8
Идентификатор кодека : S_TEXT/UTF8
Идентификатор кодека/Информация : UTF-8 Plain Text
Заголовок : Russian
Язык : Russian
Default : Нет
Forced : Нет
Меню
00:00:00.000 : en:Эпизод 01
00:10:06.120 : en:Эпизод 02
00:20:41.520 : en:Эпизод 03
00:34:35.320 : en:Эпизод 04
00:49:44.280 : en:Эпизод 05
01:00:54.200 : en:Эпизод 06
01:11:09.640 : en:Эпизод 07
01:20:11.880 : en:Эпизод 08
01:40:04.880 : en:Эпизод 09
01:54:32.560 : en:Эпизод 10
02:10:48.960 : ru:Титры

[Цитировать]



Показать сообщения:    

Текущее время: 10-Дек 23:26

Часовой пояс: UTC + 3


Вы не можете начинать темы
Вы не можете отвечать на сообщения
Вы не можете редактировать свои сообщения
Вы не можете удалять свои сообщения
Вы не можете голосовать в опросах
Вы не можете прикреплять файлы к сообщениям
Вы не можете скачивать файлы

!ВНИМАНИЕ!
Сайт не предоставляет электронные версии произведений, а занимается лишь коллекционированием и каталогизацией ссылок, присылаемых и публикуемых на форуме нашими читателями. Если вы являетесь правообладателем какого-либо представленного материала и не желаете, чтобы ссылка на него находилась в нашем каталоге, свяжитесь с нами, и мы незамедлительно удалим ее. Файлы для обмена на трекере предоставлены пользователями сайта, и администрация не несет ответственности за их содержание. Просьба не заливать файлы, защищенные авторскими правами, а также файлы нелегального содержания!