[ Сегодня идет свободное скачивание без начисления Download ]


Статистика раздачи
Нет
 
   
 
Top  
 
 
Остаться в живых: Воскрешение / Fritt vilt 2 (2008) HDRip-AVC Производство: Норвегия, Fantefilm
Жанр: Триллер, Ужасы
Режиссер: Матс Штенберг
Актеры: Ингрид Болсай Бердал, Марта Снорресдоттер Ровик, Виктория Винге, Шарлотта Грундт, Роберт Фоллин, Пер Шаанинг, Бернхард Рамстад
Описание:
Янике — единственная из всех выживших в резне (в первом фильме) в горах Ютунхеймен. Её находят и отправляют в больницу, где её приводят в чувство. Эту больницу в скором времени должны закрыть и поэтому в ней мало мед. персонала и всего три пациента, включая Янике. После того как она рассказывает, что с ней случилось, полиция начинает поиски тел её друзей и убийцу. Они находят мужчину и доставляют его в ту же больницу. Он находится в критическом состоянии, но врачам удается вернуть его к жизни. После того как он приходит в себя, он встает с кровати и начинает убивать всех, кто находится в этой больнице.
Янике, которая еще не оправилась от первого кошмара, приходится пережить новый.

Возраст: 16+ (зрителям, достигшим 16 лет)
Дата мировой премьеры: 10 октября 2008
Продолжительность: 01:29:44
Качество видео: HDRip-AVC
Перевод: Профессиональный двухголосый, любительский одноголосый (RussianGuy27)
Язык субтитров: Английский, норвежский, датский, финский, шведский
Вид субтитров: Вшитые отключаемые
Видео: AVC, 1024x428 (2.35:1), 24.000 fps, 3 018 Kbps (0.287 bit/pixel)
Аудио #1: AC-3, 48.0 KHz, 6 ch, 384 Kbps, CBR (Russian) - двухголосый
Аудио #2: AC-3, 48.0 KHz, 6 ch, 384 Kbps, CBR (Russian) - одноголосый
Аудио #3: AC-3, 48.0 KHz, 6 ch, 384 Kbps, CBR (Norwegian) - оригинал

Mediainfo:

Формат : Matroska
Версия формата : Version 2
Размер файла : 2,61 Гбайт
Продолжительность : 1 ч. 29 м.
Общий поток : 4168 Кбит/сек
Дата кодирования : UTC 2016-04-05 11:53:29
Программа кодирования : mkvmerge v5.3.0 ('I could have danced') built on Feb 9 2012 10:38:07
Библиотека кодирования : libebml v1.2.3 + libmatroska v1.3.0
Attachment : Yes
Видео
Идентификатор : 1
Формат : AVC
Формат/Информация : Advanced Video Codec
Профиль формата : [email protected]
Параметр CABAC формата : Да
Параметр ReFrames формата : 10 кадров
Идентификатор кодека : V_MPEG4/ISO/AVC
Продолжительность : 1 ч. 29 м.
Битрейт : 3018 Кбит/сек
Ширина : 1024 пикселя
Высота : 428 пикселей
Соотношение сторон : 2,40:1
Режим частоты кадров : Постоянный
Частота кадров : 24,000 кадра/сек
Цветовое пространство : YUV
Субдискретизация насыщенности : 4:2:0
Битовая глубина : 8 бит
Тип развёртки : Прогрессивная
Бит/(Пиксели*Кадры) : 0.287
Размер потока : 1,84 Гбайт (70%)
Библиотека кодирования : x264 core 146 r2538 121396c
Настройки программы : cabac=1 / ref=10 / deblock=1:-3:-3 / analyse=0x3:0x133 / me=umh / subme=10 / psy=1 / psy_rd=1.00:0.10 / mixed_ref=1 / me_range=32 / chroma_me=1 / trellis=2 / 8x8dct=1 / cqm=0 / deadzone=21,11 / fast_pskip=0 / chroma_qp_offset=-3 / threads=12 / lookahead_threads=2 / sliced_threads=0 / nr=0 / decimate=0 / interlaced=0 / bluray_compat=0 / constrained_intra=0 / bframes=8 / b_pyramid=2 / b_adapt=2 / b_bias=0 / direct=3 / weightb=1 / open_gop=0 / weightp=2 / keyint=240 / keyint_min=24 / scenecut=40 / intra_refresh=0 / rc=2pass / mbtree=0 / bitrate=3018 / ratetol=1.0 / qcomp=0.60 / qpmin=0 / qpmax=69 / qpstep=4 / cplxblur=20.0 / qblur=0.5 / ip_ratio=1.40 / pb_ratio=1.30 / aq=1:0.70
Default : Да
Forced : Нет
Аудио #1
Идентификатор : 2
Формат : AC-3
Формат/Информация : Audio Coding 3
Расширение режима : CM (complete main)
Параметр Endianness формата : Big
Идентификатор кодека : A_AC3
Продолжительность : 1 ч. 29 м.
Вид битрейта : Постоянный
Битрейт : 384 Кбит/сек
Каналы : 6 каналов
Расположение каналов : Front: L C R, Side: L R, LFE
Частота : 48,0 КГц
Битовая глубина : 16 бит
Метод сжатия : С потерями
Размер потока : 246 Мбайт (9%)
Заголовок : DVO (AC3 DD 5.1 384 Kbps)
Язык : Russian
Default : Да
Forced : Нет
Аудио #2
Идентификатор : 3
Формат : AC-3
Формат/Информация : Audio Coding 3
Расширение режима : CM (complete main)
Параметр Endianness формата : Big
Идентификатор кодека : A_AC3
Продолжительность : 1 ч. 29 м.
Вид битрейта : Постоянный
Битрейт : 384 Кбит/сек
Каналы : 6 каналов
Расположение каналов : Front: L C R, Side: L R, LFE
Частота : 48,0 КГц
Битовая глубина : 16 бит
Метод сжатия : С потерями
Размер потока : 246 Мбайт (9%)
Заголовок : RussianGuy27
Язык : Russian
Default : Нет
Forced : Нет
Аудио #3
Идентификатор : 4
Формат : AC-3
Формат/Информация : Audio Coding 3
Расширение режима : CM (complete main)
Параметр Endianness формата : Big
Идентификатор кодека : A_AC3
Продолжительность : 1 ч. 29 м.
Вид битрейта : Постоянный
Битрейт : 384 Кбит/сек
Каналы : 6 каналов
Расположение каналов : Front: L C R, Side: L R, LFE
Частота : 48,0 КГц
Битовая глубина : 16 бит
Метод сжатия : С потерями
Размер потока : 246 Мбайт (9%)
Язык : Norwegian
Default : Нет
Forced : Нет
Текст #1
Идентификатор : 5
Формат : UTF-8
Идентификатор кодека : S_TEXT/UTF8
Идентификатор кодека/Информация : UTF-8 Plain Text
Язык : English
Default : Нет
Forced : Нет
Текст #2
Идентификатор : 6
Формат : UTF-8
Идентификатор кодека : S_TEXT/UTF8
Идентификатор кодека/Информация : UTF-8 Plain Text
Язык : Norwegian Bokmal
Default : Нет
Forced : Нет
Текст #3
Идентификатор : 7
Формат : UTF-8
Идентификатор кодека : S_TEXT/UTF8
Идентификатор кодека/Информация : UTF-8 Plain Text
Язык : Danish
Default : Нет
Forced : Нет
Текст #4
Идентификатор : 8
Формат : UTF-8
Идентификатор кодека : S_TEXT/UTF8
Идентификатор кодека/Информация : UTF-8 Plain Text
Язык : Finnish
Default : Нет
Forced : Нет
Текст #5
Идентификатор : 9
Формат : UTF-8
Идентификатор кодека : S_TEXT/UTF8
Идентификатор кодека/Информация : UTF-8 Plain Text
Язык : Swedish
Default : Нет
Forced : Нет
Меню
00:00:00.000 : en:00:00:00.000
00:07:39.625 : en:00:07:39.625
00:14:56.083 : en:00:14:56.083
00:20:31.542 : en:00:20:31.542
00:29:43.417 : en:00:29:43.417
00:35:38.583 : en:00:35:38.583
00:48:03.917 : en:00:48:03.917
00:52:24.583 : en:00:52:24.583
01:02:58.375 : en:01:02:58.375
01:07:06.542 : en:01:07:06.542
01:17:54.792 : en:01:17:54.792
01:25:22.042 : en:01:25:22.042
01:29:44.000 : en:01:29:44.000
Скриншоты:

[Цитировать]



Показать сообщения:    

Текущее время: 06-Дек 03:54

Часовой пояс: UTC + 3


Вы не можете начинать темы
Вы не можете отвечать на сообщения
Вы не можете редактировать свои сообщения
Вы не можете удалять свои сообщения
Вы не можете голосовать в опросах
Вы не можете прикреплять файлы к сообщениям
Вы не можете скачивать файлы

!ВНИМАНИЕ!
Сайт не предоставляет электронные версии произведений, а занимается лишь коллекционированием и каталогизацией ссылок, присылаемых и публикуемых на форуме нашими читателями. Если вы являетесь правообладателем какого-либо представленного материала и не желаете, чтобы ссылка на него находилась в нашем каталоге, свяжитесь с нами, и мы незамедлительно удалим ее. Файлы для обмена на трекере предоставлены пользователями сайта, и администрация не несет ответственности за их содержание. Просьба не заливать файлы, защищенные авторскими правами, а также файлы нелегального содержания!