[ Сегодня идет свободное скачивание без начисления Download ]


Статистика раздачи
Нет
 
   
 
Top  
 
 
Гладиатор [Расширенная версия] / Gladiator [Extended Cut]«Генерал, ставший рабом. Раб, ставший гладиатором. Гладиатор, бросивший вызов империи.»
Год выпуска: 2000
Страна: США, Великобритания
Производство: C & L, Dawliz , DreamWorks SKG, Mill Film, Red Wagon Productions, Scott Free Productions, Universal Pictures
Жанр: боевик, драма, приключения, история
Режиссер: Ридли Скотт
В ролях: Рассел Кроу, Хоакин Феникс, Конни Нильсен, Оливер Рид, Ричард Харрис, Дерек Джекоби, Джимон Хунсу, Дэвид Скофилд, Джон Шрэпнел, Томас Арана и др.
Перевод: Профессиональный (полное дублирование) +Профессиональный (многоголосый, закадровый) + Субтитры
Субтитры: Русские, Английские
Описание: В великой Римской империи не было военачальника, равного генералу Максимусу. Непобедимые легионы, которыми командовал этот благородный воин, боготворили его и могли последовать за ним даже в ад.
Но случилось так, что отважный Максимус, готовый сразиться с любым противником в честном бою, оказался бессилен против вероломных придворных интриг. Генерала предали и приговорили к смерти. Чудом избежав гибели, Максимус становится гладиатором.
Быстро снискав себе славу в кровавых поединках, он оказывается в знаменитом римском Колизее, на арене которого он встретится в смертельной схватке со своим заклятым врагом…

[kp]474[/kp] [imdb]tt0172495[/imdb]
Качество: BDRip-AVC
Продолжительность: 02:50:56
Формат: MKV
Видео кодек: AVC
Аудио кодек: AC3
Видео: 1 224x520 (2.35:1), 23.976 fps, 4307 kbps avg, 0.282 bit/pixel
Аудио: 48 kHz, АС3, 3/2 (L,C,R,l,r) + LFE ch, ~448.00 kbps avg - (Профессиональный (полное дублирование))
Аудио #2: 48 kHz, АС3, 3/2 (L,C,R,l,r) + LFE ch, ~448.00 kbps avg - (Профессиональный (многоголосый закадровый))
Аудио #3: 48 kHz, АС3, 2 (L R) ch, ~192.00 kbps avg
Аудио #4: 48 kHz, АС3, 3/2 (L,C,R,l,r) + LFE ch, ~448.00 kbps avg - (Оригинал)

Media Info

Format : Matroska
File size : 7.12 GiB
Duration : 2h 50mn
Overall bit rate : 5 962 Kbps
Movie name : Gladiator (2000) BDRip
Encoded date : UTC 2011-05-15 12:39:20
Writing application : mkvmerge v4.7.0 ('Just Like You Imagined') built on Apr 21 2011 01:13:14
Writing library : libebml v1.2.0 + libmatroska v1.1.0
Cover : Yes
Video
ID : 1
Format : AVC
Format/Info : Advanced Video Codec
Format profile : High@L4.0
Format settings, CABAC : Yes
Format settings, ReFrames : 11 frames
Codec ID : V_MPEG4/ISO/AVC
Duration : 2h 50mn
Bit rate : 4 307 Kbps
Width : 1 224 pixels
Height : 520 pixels
Display aspect ratio : 2.35:1
Frame rate : 23.976 fps
Color space : YUV
Chroma subsampling : 4:2:0
Bit depth : 8 bits
Scan type : Progressive
Bits/(Pixel*Frame) : 0.282
Stream size : 5.14 GiB (72%)
Writing library : x264 core 115 r1995 c1e60b9
Encoding settings : cabac=1 / ref=11 / deblock=1:-3:-2 / analyse=0x3:0x133 / me=umh / subme=10 / psy=1 / psy_rd=0.90:0.03 / mixed_ref=1 / me_range=32 / chroma_me=1 / trellis=2 / 8x8dct=1 / cqm=0 / deadzone=21,11 / fast_pskip=1 / chroma_qp_offset=-3 / threads=6 / sliced_threads=0 / nr=0 / decimate=1 / interlaced=0 / bluray_compat=0 / constrained_intra=0 / bframes=10 / b_pyramid=2 / b_adapt=2 / b_bias=0 / direct=1 / weightb=1 / open_gop=0 / weightp=2 / keyint=250 / keyint_min=23 / scenecut=40 / intra_refresh=0 / rc=crf / mbtree=0 / crf=18.2 / qcomp=0.70 / qpmin=0 / qpmax=69 / qpstep=4 / ip_ratio=1.40 / pb_ratio=1.20 / aq=2:0.75
Language : English
Matrix coefficients : BT.709-5, BT.1361, IEC 61966-2-4 709, SMPTE RP177
Audio #1
ID : 2
Format : AC-3
Format/Info : Audio Coding 3
Mode extension : CM (complete main)
Codec ID : A_AC3
Duration : 2h 50mn
Bit rate mode : Constant
Bit rate : 448 Kbps
Channel(s) : 6 channels
Channel positions : Front: L C R, Side: L R, LFE
Sampling rate : 48.0 KHz
Bit depth : 16 bits
Compression mode : Lossy
Stream size : 548 MiB (8%)
Title : Dub
Language : Russian
Audio #2
ID : 3
Format : AC-3
Format/Info : Audio Coding 3
Mode extension : CM (complete main)
Codec ID : A_AC3
Duration : 2h 50mn
Bit rate mode : Constant
Bit rate : 448 Kbps
Channel(s) : 6 channels
Channel positions : Front: L C R, Side: L R, LFE
Sampling rate : 48.0 KHz
Bit depth : 16 bits
Compression mode : Lossy
Stream size : 548 MiB (8%)
Title : MVO (Inter)
Language : Russian
Audio #3
ID : 4
Format : AC-3
Format/Info : Audio Coding 3
Mode extension : CM (complete main)
Codec ID : A_AC3
Duration : 2h 50mn
Bit rate mode : Constant
Bit rate : 448 Kbps
Channel(s) : 6 channels
Channel positions : Front: L C R, Side: L R, LFE
Sampling rate : 48.0 KHz
Bit depth : 16 bits
Compression mode : Lossy
Stream size : 548 MiB (8%)
Title : Original
Language : English
Audio #4
ID : 5
Format : AC-3
Format/Info : Audio Coding 3
Format profile : Dolby Digital
Mode extension : CM (complete main)
Codec ID : A_AC3
Duration : 2h 50mn
Bit rate mode : Constant
Bit rate : 192 Kbps
Channel(s) : 2 channels
Channel positions : Front: L R
Sampling rate : 48.0 KHz
Bit depth : 16 bits
Compression mode : Lossy
Stream size : 235 MiB (3%)
Title : Commentary (Ridley Scott, Russell Crowe)
Language : English
Text #1
ID : 6
Format : UTF-8
Codec ID : S_TEXT/UTF8
Codec ID/Info : UTF-8 Plain Text
Title : Forced
Language : Russian
Text #2
ID : 7
Format : UTF-8
Codec ID : S_TEXT/UTF8
Codec ID/Info : UTF-8 Plain Text
Title : Extended
Language : Russian
Text #3
ID : 8
Format : UTF-8
Codec ID : S_TEXT/UTF8
Codec ID/Info : UTF-8 Plain Text
Language : Russian
Text #4
ID : 9
Format : UTF-8
Codec ID : S_TEXT/UTF8
Codec ID/Info : UTF-8 Plain Text
Language : English
Text #5
ID : 10
Format : UTF-8
Codec ID : S_TEXT/UTF8
Codec ID/Info : UTF-8 Plain Text
Title : SDH
Language : English
Text #6
ID : 11
Format : UTF-8
Codec ID : S_TEXT/UTF8
Codec ID/Info : UTF-8 Plain Text
Title : Commentary (Ridley Scott, Russell Crowe)
Language : Russian
Menu
00:00:00.000 : en:Far from Home (Main Title)
00:07:13.308 : en:Hell Unleashed
00:12:50.103 : en:You Have Missed the War
00:18:44.790 : en:A Pleasant Fiction
00:23:29.325 : en:One More Duty
00:32:58.393 : en:You Will Not Be Emperor
00:37:34.878 : en:Hail Caesar
00:40:50.740 : en:A Soldier's Death
00:47:32.725 : en:Mark of the Legion
00:51:35.843 : en:Gladiators, I Salute You
00:55:44.383 : en:Battle in Chains
01:02:21.279 : en:The Greatness of Rome
01:09:56.984 : en:Win the Crowd
01:19:08.285 : en:I Shall Cheer for You
01:29:21.648 : en:The Battle of Carthage
01:37:11.784 : en:My Name Is Gladiator
01:41:35.798 : en:Terribly Vexed
01:51:58.837 : en:A Man for the People
01:56:36.281 : en:Maximus the Merciful
02:00:43.486 : en:You Simply Won't Die
02:04:42.225 : en:The Last Wish of a Dying Man
02:12:19.014 : en:I'm an Entertainer
02:13:32.588 : en:Busy Little Bee
02:24:15.438 : en:Shadows and Dust
02:28:48.670 : en:Am I Not Merciful?
02:34:20.751 : en:Death Smiles at Us All
02:38:43.555 : en:Home Again
02:42:57.726 : en:Now We Are Free (End Credits)

[Цитировать]

Шикарный Фильм!

[Цитировать]

MatroS, +1

[Цитировать]



Показать сообщения:    

Текущее время: 10-Дек 11:49

Часовой пояс: UTC + 3


Вы не можете начинать темы
Вы не можете отвечать на сообщения
Вы не можете редактировать свои сообщения
Вы не можете удалять свои сообщения
Вы не можете голосовать в опросах
Вы не можете прикреплять файлы к сообщениям
Вы не можете скачивать файлы

!ВНИМАНИЕ!
Сайт не предоставляет электронные версии произведений, а занимается лишь коллекционированием и каталогизацией ссылок, присылаемых и публикуемых на форуме нашими читателями. Если вы являетесь правообладателем какого-либо представленного материала и не желаете, чтобы ссылка на него находилась в нашем каталоге, свяжитесь с нами, и мы незамедлительно удалим ее. Файлы для обмена на трекере предоставлены пользователями сайта, и администрация не несет ответственности за их содержание. Просьба не заливать файлы, защищенные авторскими правами, а также файлы нелегального содержания!