[ Сегодня идет свободное скачивание без начисления Download ]


Статистика раздачи
Скачал: [ 1 ]
 
   
 
Top  
 
 
Женщина в беде-2 Год выпуска: 2015
Производство: ООО «Студия Грин Фильм» по заказу ООО «ПРИОР Продакшн»
Жанр: Криминальный фильм, мелодрама
Продолжительность: ~0:42:00 серия
Субтитры: нет
Режиссёр: Алексей Праздников
В ролях: Максим Щёголев, Татьяна Казючиц, Кира Кауфман, Вита Кузнецова, Светлана Цвиченко, Алексей Фокин, Александр Клемантович, Екатерина Унтилова, Сергей Смирнов (IV)
Описание: Прошло два года после драматических событий первого фильма. Аня закончила медицинский и стала детским ортопедом. Иван (не без помощи Ани) вылечил ногу и восстановился на курсах по самообороне. Анютка стала первоклашкой, чем очень гордится. Лена продолжает делать карьеру архитектурного дизайнера, ведет большой, сложный и дорогой проект — некий бизнесмен захотел построить загородную виллу. Строительство близко к завершению, и Лена спешит на встречу к бизнесмену-заказчику, чтобы «на объекте» обсудить детали будущей отделки. Но в недостроенном здании она обнаруживает бизнесмена убитым. Вдалеке уже звучит полицейская сирена. Лена становится главной подозреваемой. Расследование отягощается еще и тем, что все авансы на строительство и ремонт со счетов ее фирмы бесследно исчезли. Все указывает на Лену! В панике она обращается за помощью к лучшей подруге — Ане. Аня и Иван помогают ей скрыться, тем самым подставляя себя под удар неведомого противника. Шаг за шагом троица будет распутывать многоходовую мошенническую схему, избегать ловушек и подвергать себя опасности, чтобы вывести преступников на чистую воду.

Качество: WEBRip 1080p
Формат: MKV
Видео кодек: H.264
Аудио кодек: AAC
Видео: x264, 1912 х 1080 (16:9), 25,000 кадр/сек, ~ 4000 kbps, 0.077 bit/pixel
Аудио: AAC, 44100 Hz, ~192 Kbps, 2 канала
Сторонней рекламы нет!

MediaInfo

GeneralUnique ID : 90185010326131941177108194955682015661 (0x43D9004E21BEF1FCDB6AA1708D2E69AD)Complete name : Y:\раздачи\Женщина в беде-2.2015.WEB-DL1080.RG.Russkie.serialy.&.Files-x\01.Женщина в беде-2.2015.WEB-DL1080.RG.Russkie.serialy.&.Files-x.MKVFormat : MatroskaFormat version : Version 2File size : 1.28 GiBDuration : 43mn 44sOverall bit rate : 4 196 KbpsWriting application : Lavf54.63.104Writing library : Lavf54.63.104
VideoID : 1Format : AVCFormat/Info : Advanced Video CodecFormat profile : High@L4.0Format settings, CABAC : YesFormat settings, ReFrames : 3 framesCodec ID : V_MPEG4/ISO/AVCDuration : 43mn 44sBit rate : 4 000 KbpsWidth : 1 920 pixelsOriginal width : 1 912 pixelsHeight : 1 080 pixelsDisplay aspect ratio : 16:9Original display aspect ratio : 16:9Frame rate mode : ConstantFrame rate : 25.000 fpsColor space : YUVChroma subsampling : 4:2:0Bit depth : 8 bitsScan type : ProgressiveBits/(Pixel*Frame) : 0.077Stream size : 1.20 GiB (93%)Writing library : x264 core 142 r2389 956c8d8Encoding settings : cabac=1 / ref=3 / deblock=1:0:0 / analyse=0x3:0x133 / me=umh / subme=7 / psy=1 / psy_rd=1.00:0.00 / mixed_ref=1 / me_range=32 / chroma_me=1 / trellis=2 / 8x8dct=1 / cqm=0 / deadzone=21,11 / fast_pskip=1 / chroma_qp_offset=-2 / threads=12 / lookahead_threads=2 / sliced_threads=0 / nr=0 / decimate=1 / interlaced=0 / bluray_compat=0 / constrained_intra=0 / bframes=0 / weightp=0 / keyint=75 / keyint_min=26 / scenecut=40 / intra_refresh=0 / rc_lookahead=50 / rc=2pass / mbtree=0 / bitrate=4000 / ratetol=1.0 / qcomp=0.20 / qpmin=10 / qpmax=51 / qpstep=4 / cplxblur=20.0 / qblur=0.5 / vbv_maxrate=5000 / vbv_bufsize=5000 / nal_hrd=none / filler=0 / ip_ratio=1.40 / aq=1:1.00Default : YesForced : NoColor primaries : BT.709Transfer characteristics : BT.709Matrix coefficients : BT.709Color range : Limited
AudioID : 2Format : AC-3Format/Info : Audio Coding 3Mode extension : CM (complete main)Format settings, Endianness : BigCodec ID : A_AC3Duration : 43mn 44sBit rate mode : ConstantBit rate : 192 KbpsChannel(s) : 2 channelsChannel positions : Front: L RSampling rate : 44.1 KHzBit depth : 16 bitsCompression mode : LossyStream size : 60.1 MiB (5%)Language : unknownDefault : YesForced : No

Внимание ! Раздача ведётся путём добавления новых серий

Внимание! Раздача ведётся путём добавления новых серий; при каждом добавлении создётся новый торрент. Чтобы начать докачку новой серии, пользователям необходимо сделать следующее:
(1) остановить скачивание,
(2) удалить старый торрент у себя из клиента (старые серии удалять не надо),
(3) скачать новый торрент и запустить его у себя в клиенте вместо старого, при этом указать клиенту путь в старую папку куда и должно происходить скачивание новых серий.
Ваш клиент при этом должен произвести хеширование (проверку) старой папки (если не производит сам - помогите ему сделать это), и будет докачивать только те серии которых у вас ещё нет. Старые серии при этом не удаляются, а продолжают раздаваться!
Eсли вы уже удалили старые серии, то предотвратить повторную закачку старых серий можно, отжав галочку в соответсвующих местах при запуске нового торрента. По возможности, желательно не удалять старые серии как можно дольше чтобы релизёр не столько продолжал раздавать старые серии, а смог сконцентрироваться на новых.
ВНИМАНИЕ! ТОРРЕНТ ПЕРЕЗАЛИТ! ДОБАВЛЕНА 1-4 ая СЕРИИ!

Скриншоты

[Цитировать]



Показать сообщения:    

Текущее время: 08-Дек 11:00

Часовой пояс: UTC + 3


Вы не можете начинать темы
Вы не можете отвечать на сообщения
Вы не можете редактировать свои сообщения
Вы не можете удалять свои сообщения
Вы не можете голосовать в опросах
Вы не можете прикреплять файлы к сообщениям
Вы не можете скачивать файлы

!ВНИМАНИЕ!
Сайт не предоставляет электронные версии произведений, а занимается лишь коллекционированием и каталогизацией ссылок, присылаемых и публикуемых на форуме нашими читателями. Если вы являетесь правообладателем какого-либо представленного материала и не желаете, чтобы ссылка на него находилась в нашем каталоге, свяжитесь с нами, и мы незамедлительно удалим ее. Файлы для обмена на трекере предоставлены пользователями сайта, и администрация не несет ответственности за их содержание. Просьба не заливать файлы, защищенные авторскими правами, а также файлы нелегального содержания!