[ Сегодня идет свободное скачивание без начисления Download ]


Статистика раздачи
Нет
 
   
 
Top  
 
 
Деревенские крокодилы 3 / Vorstadtkrokodile 3 (2011) BDRip 720p Информация о фильме
Название: Деревенские крокодилы 3
Оригинальное название: Vorstadtkrokodile 3
Год выхода: 2011
Страна: Германия, Constantin Film, Rat Pack Filmproduktion GmbH, Westside Filmproduktion GmbH
Жанр: семейный, детский, приключения
Продолжительность: 01:23:51
Перевод: Одноголосый любительский (Вячеслав Прошин)
Режиссер: Кристиан Диттер / Christian Ditter
В ролях: Ник Ромео Рейманн, Фабиан Халбиг, Леони Тепе, Мануэль Штайц, Джавидан Имани, Робин Уолтер, Николас Шинсек, Давид Хюртен, Якоб Маченц, Аксель Штайн, Октай Оздемир, Нора Чирнер
О фильме: Заключительный фильм из трилогии, снятой по одноименному роману Макса фон дер Грюна.
«Крокодилы» стали на год старше. Снова лето. У Ханнеса — день рождения, которое друзья отмечают сумасшедшими гонками на картах, но происходит трагический инцидент, в результате чего Франк с тяжелой травмой попадает в больницу. И теперь «крокодилам», чтобы спасти его жизнь, необходимо вытащить его брата из тюрьмы, в которую они же сами его и засадили еще в первой серии…

Немного истории

Роман Макса фон дер Грюна "Die Vorstadtkrokodile"
Вышедшая в Германии в середине 1970-х годов книга имела колоссальный успех, разошлась более чем 800-тысячным тиражом, издавалась позже в аудиоверсии и имела огромную фан-базу среди всех возрастных категорий. В 1977 году по мотивам книги вышел мини-сериал Деревенские Крокодилы (Die Vorstadtkrokodile) - в эфире показан 25 декабря 1977 года, а 3 и 4 января 1978 года транслировалось продолжение в двух частях. Позже его транслировали, уже объединив в одну 88-минутную версию...
И вот новая экранизация... В фильме действие перенесено в наши дни, но бережно сохранено все лучшее из литературного оригинала: захватывающие приключения героев, динамичное действие и массу смешных эпизодов. Почитатели романа с восторгом приняли фильм, отмечая, что его с удовольствием посмотрят не только дети, но и взрослые. Картина получила немало наград и была участником многих национальных и международных фестивалей кино для детей и юношества, в том числе Московского в 2009 году.
-Доп. информация:
-Файл
Формат: MKV
Качество: BDRip 720p
Видео: MPEG4-AVC, [email protected], 1280x688, ~ 5 500 Kbps, 24.000 fps
Звук #1: 48.0 KHz, AC3 2.0, 192 Kbps - русский (одноголосый)
Звук #2: 48.0 KHz, DTS 5.1, 1 509 Kbps - немецкий (оригинал)
Субтитры: русские

MI

Деревенские крокодилы-3. 2011.BDRip.720p.Rus.Ger.mkv
Format : Matroska
Format version : Version 2
File size : 4.22 GiB
Duration : 1h 23mn
Overall bit rate : 7 201 Kbps
Encoded date : UTC 2016-04-01 17:04:46
Writing application : mkvmerge v5.8.0 ('No Sleep / Pillow') built on Sep 2 2012 15:37:04
Writing library : libebml v1.2.3 + libmatroska v1.3.0
Video
ID : 1
Format : AVC
Format/Info : Advanced Video Codec
Format profile : [email protected]
Format settings, CABAC : Yes
Format settings, ReFrames : 10 frames
Codec ID : V_MPEG4/ISO/AVC
Duration : 1h 23mn
Bit rate : 5 500 Kbps
Width : 1 280 pixels
Height : 688 pixels
Display aspect ratio : 1.85:1
Frame rate mode : Constant
Frame rate : 24.000 fps
Color space : YUV
Chroma subsampling : 4:2:0
Bit depth : 8 bits
Scan type : Progressive
Bits/(Pixel*Frame) : 0.260
Stream size : 3.14 GiB (74%)
Title : Vorstadtkrokodile.3.720p.BluRay.x264
Writing library : x264 core 125 r2208 d9d2288
Encoding settings : cabac=1 / ref=10 / deblock=1:-3:-3 / analyse=0x3:0x133 / me=umh / subme=11 / psy=1 / psy_rd=1.15:0.25 / mixed_ref=1 / me_range=32 / chroma_me=1 / trellis=2 / 8x8dct=1 / cqm=0 / deadzone=21,11 / fast_pskip=0 / chroma_qp_offset=-4 / threads=6 / lookahead_threads=1 / sliced_threads=0 / nr=0 / decimate=0 / interlaced=0 / bluray_compat=0 / constrained_intra=0 / bframes=10 / b_pyramid=2 / b_adapt=2 / b_bias=0 / direct=3 / weightb=1 / open_gop=0 / weightp=2 / keyint=240 / keyint_min=23 / scenecut=40 / intra_refresh=0 / rc_lookahead=40 / rc=2pass / mbtree=0 / bitrate=5500 / ratetol=1.0 / qcomp=0.60 / qpmin=0 / qpmax=69 / qpstep=4 / cplxblur=20.0 / qblur=0.5 / vbv_maxrate=20000 / vbv_bufsize=25000 / nal_hrd=none / ip_ratio=1.40 / pb_ratio=1.30 / aq=2:1.00
Language : German
Default : Yes
Forced : No
Color range : Limited
Color primaries : BT.709
Transfer characteristics : BT.709
Matrix coefficients : BT.709
Audio #1
ID : 2
Format : AC-3
Format/Info : Audio Coding 3
Mode extension : CM (complete main)
Format settings, Endianness : Big
Codec ID : A_AC3
Duration : 1h 23mn
Bit rate mode : Constant
Bit rate : 192 Kbps
Channel(s) : 2 channels
Channel positions : Front: L R
Sampling rate : 48.0 KHz
Frame rate : 31.250 fps (1536 spf)
Compression mode : Lossy
Stream size : 115 MiB (3%)
Title : VO (Вячеслав Прошин)
Language : Russian
Default : Yes
Forced : No
Audio #2
ID : 3
Format : DTS
Format/Info : Digital Theater Systems
Mode : 16
Format settings, Endianness : Big
Codec ID : A_DTS
Duration : 1h 23mn
Bit rate mode : Constant
Bit rate : 1 509 Kbps
Channel(s) : 6 channels
Channel positions : Front: L C R, Side: L R, LFE
Sampling rate : 48.0 KHz
Frame rate : 93.750 fps (512 spf)
Bit depth : 24 bits
Compression mode : Lossy
Delay relative to video : 11ms
Stream size : 905 MiB (21%)
Title : German
Language : German
Default : No
Forced : No
Text
ID : 4
Format : UTF-8
Codec ID : S_TEXT/UTF8
Codec ID/Info : UTF-8 Plain Text
Title : Rus
Language : Russian
Default : No
Forced : No

Скриншоты

[Цитировать]



Показать сообщения:    

Текущее время: 05-Дек 23:45

Часовой пояс: UTC + 3


Вы не можете начинать темы
Вы не можете отвечать на сообщения
Вы не можете редактировать свои сообщения
Вы не можете удалять свои сообщения
Вы не можете голосовать в опросах
Вы не можете прикреплять файлы к сообщениям
Вы не можете скачивать файлы

!ВНИМАНИЕ!
Сайт не предоставляет электронные версии произведений, а занимается лишь коллекционированием и каталогизацией ссылок, присылаемых и публикуемых на форуме нашими читателями. Если вы являетесь правообладателем какого-либо представленного материала и не желаете, чтобы ссылка на него находилась в нашем каталоге, свяжитесь с нами, и мы незамедлительно удалим ее. Файлы для обмена на трекере предоставлены пользователями сайта, и администрация не несет ответственности за их содержание. Просьба не заливать файлы, защищенные авторскими правами, а также файлы нелегального содержания!