[ Сегодня идет свободное скачивание без начисления Download ]


Статистика раздачи
Нет
 
   
 
Top  
 
 
Деревенские крокодилы 2 / Vorstadtkrokodile 2 (2010) BDRip 720p Информация о фильме
Название: Деревенские крокодилы 2
Оригинальное название: Vorstadtkrokodile 2
Год выхода: 2010
Страна: Германия, Constantin Film, Rat Pack Filmproduktion GmbH, Westside Filmproduktion GmbH
Жанр: семейный, детский, приключения
Продолжительность: 01:32:11
Перевод: Профессиональный многоголосный закадровый (ВГТРК)+ одноголосый любительский (Вячеслав Прошин)
Режиссер: Кристиан Диттер / Christian Ditter
В ролях: Ник Ромео Рейманн, Фабиан Халбиг, Леони Тепе, Мануэль Штайц, Джавидан Имани, Робин Уолтер, Николас Шинсек, Давид Хюртен, Якоб Маченц, Аксель Штайн, Октай Оздемир, Нора Чирнер
О фильме: Второй фильм из трилогии, снятой по одноименному роману Макса фон дер Грюна.
Лето, каникулы, первая любовь и новая штаб-квартира банды — жизнь деревенских крокодилов могла бы быть такой же замечательной, если бы не инцидент у родителей Олли и Марии. Компания близится к банкротству и угрозы для родителей, потеря работы и жилья. Эта такая же угроза для крокодилов, в виду того, что Олли и Мария будут в другом городе и с Ханнесом, Каем, Йогу, Франком, Питером не будет связей. Конечно деревенские крокодилы сделают всё возможное, что бы выявить тёмную сторону сделки. Деревенские крокодилы просят помощи у кузины Дженни. С полной готовностью на велосипедах и коляски крокодилы отправляются в новое приключение.

Немного истории

Роман Макса фон дер Грюна "Die Vorstadtkrokodile"
Вышедшая в Германии в середине 1970-х годов книга имела колоссальный успех, разошлась более чем 800-тысячным тиражом, издавалась позже в аудиоверсии и имела огромную фан-базу среди всех возрастных категорий. В 1977 году по мотивам книги вышел мини-сериал Деревенские Крокодилы (Die Vorstadtkrokodile) - в эфире показан 25 декабря 1977 года, а 3 и 4 января 1978 года транслировалось продолжение в двух частях. Позже его транслировали, уже объединив в одну 88-минутную версию...
И вот новая экранизация... В фильме действие перенесено в наши дни, но бережно сохранено все лучшее из литературного оригинала: захватывающие приключения героев, динамичное действие и массу смешных эпизодов. Почитатели романа с восторгом приняли фильм, отмечая, что его с удовольствием посмотрят не только дети, но и взрослые. Картина получила немало наград и была участником многих национальных и международных фестивалей кино для детей и юношества, в том числе Московского в 2009 году.
-Доп. информация:
-Файл
Формат: MKV
Качество: BDRip 720p
Видео: MPEG4-AVC, High@L4.1, 1280x688, ~ 5 500 Kbps, 24.000 fps
Звук #1: 48.0 KHz, AC3 2.0, 192 Kbps - русский (многоголосый)
Звук #2: 48.0 KHz, AC3 2.0, 192 Kbps - русский (одноголосый)
Звук #3: 48.0 KHz, DTS 5.1, 1 509 Kbps - немецкий (оригинал)
Субтитры: русские

MI

Деревенские крокодилы-2. 2010.BDRip.720p.2Rus.Ger.mkv
Format : Matroska
Format version : Version 2
File size : 4.76 GiB
Duration : 1h 32mn
Overall bit rate : 7 391 Kbps
Encoded date : UTC 2016-04-01 16:32:24
Writing application : mkvmerge v5.8.0 ('No Sleep / Pillow') built on Sep 2 2012 15:37:04
Writing library : libebml v1.2.3 + libmatroska v1.3.0
Video
ID : 1
Format : AVC
Format/Info : Advanced Video Codec
Format profile : High@L4.1
Format settings, CABAC : Yes
Format settings, ReFrames : 10 frames
Codec ID : V_MPEG4/ISO/AVC
Duration : 1h 32mn
Bit rate : 5 500 Kbps
Width : 1 280 pixels
Height : 688 pixels
Display aspect ratio : 1.85:1
Frame rate mode : Constant
Frame rate : 24.000 fps
Color space : YUV
Chroma subsampling : 4:2:0
Bit depth : 8 bits
Scan type : Progressive
Bits/(Pixel*Frame) : 0.260
Stream size : 3.45 GiB (72%)
Title : Vorstadtkrokodile.2.720p.BluRay.x264
Writing library : x264 core 125 r2208 d9d2288
Encoding settings : cabac=1 / ref=10 / deblock=1:-3:-3 / analyse=0x3:0x133 / me=umh / subme=11 / psy=1 / psy_rd=1.15:0.25 / mixed_ref=1 / me_range=32 / chroma_me=1 / trellis=2 / 8x8dct=1 / cqm=0 / deadzone=21,11 / fast_pskip=0 / chroma_qp_offset=-4 / threads=6 / lookahead_threads=1 / sliced_threads=0 / nr=0 / decimate=0 / interlaced=0 / bluray_compat=0 / constrained_intra=0 / bframes=10 / b_pyramid=2 / b_adapt=2 / b_bias=0 / direct=3 / weightb=1 / open_gop=0 / weightp=2 / keyint=240 / keyint_min=23 / scenecut=40 / intra_refresh=0 / rc_lookahead=40 / rc=2pass / mbtree=0 / bitrate=5500 / ratetol=1.0 / qcomp=0.60 / qpmin=0 / qpmax=69 / qpstep=4 / cplxblur=20.0 / qblur=0.5 / vbv_maxrate=20000 / vbv_bufsize=25000 / nal_hrd=none / ip_ratio=1.40 / pb_ratio=1.30 / aq=2:1.00
Language : German
Default : Yes
Forced : No
Color range : Limited
Color primaries : BT.709
Transfer characteristics : BT.709
Matrix coefficients : BT.709
Audio #1
ID : 2
Format : AC-3
Format/Info : Audio Coding 3
Mode extension : CM (complete main)
Format settings, Endianness : Big
Codec ID : A_AC3
Duration : 1h 32mn
Bit rate mode : Constant
Bit rate : 192 Kbps
Channel(s) : 2 channels
Channel positions : Front: L R
Sampling rate : 48.0 KHz
Frame rate : 31.250 fps (1536 spf)
Compression mode : Lossy
Stream size : 127 MiB (3%)
Title : MVO_ВГТРК
Language : Russian
Default : Yes
Forced : No
Audio #2
ID : 3
Format : AC-3
Format/Info : Audio Coding 3
Mode extension : CM (complete main)
Format settings, Endianness : Big
Codec ID : A_AC3
Duration : 1h 32mn
Bit rate mode : Constant
Bit rate : 192 Kbps
Channel(s) : 2 channels
Channel positions : Front: L R
Sampling rate : 48.0 KHz
Frame rate : 31.250 fps (1536 spf)
Compression mode : Lossy
Stream size : 127 MiB (3%)
Title : VO (Вячеслав Прошин)
Language : Russian
Default : No
Forced : No
Audio #3
ID : 4
Format : DTS
Format/Info : Digital Theater Systems
Mode : 16
Format settings, Endianness : Big
Codec ID : A_DTS
Duration : 1h 32mn
Bit rate mode : Constant
Bit rate : 1 509 Kbps
Channel(s) : 6 channels
Channel positions : Front: L C R, Side: L R, LFE
Sampling rate : 48.0 KHz
Frame rate : 93.750 fps (512 spf)
Bit depth : 24 bits
Compression mode : Lossy
Stream size : 995 MiB (20%)
Title : German DTS 5.1 1510 kbps
Language : German
Default : No
Forced : No
Text
ID : 5
Format : UTF-8
Codec ID : S_TEXT/UTF8
Codec ID/Info : UTF-8 Plain Text
Title : Rus
Language : Russian
Default : No
Forced : No
Menu
00:00:00.000 : en:00:00:00.000
00:05:51.792 : en:00:05:51.792
00:11:52.250 : en:00:11:52.250
00:16:53.875 : en:00:16:53.875
00:22:37.792 : en:00:22:37.792
00:27:42.333 : en:00:27:42.333
00:32:19.500 : en:00:32:19.500
00:38:37.042 : en:00:38:37.042
00:43:35.708 : en:00:43:35.708
00:48:15.000 : en:00:48:15.000
00:52:26.917 : en:00:52:26.917
00:56:50.333 : en:00:56:50.333
01:03:09.875 : en:01:03:09.875
01:08:05.208 : en:01:08:05.208
01:12:28.542 : en:01:12:28.542
01:16:48.917 : en:01:16:48.917
01:22:04.792 : en:01:22:04.792
01:26:27.000 : en:01:26:27.000

Скриншоты

[Цитировать]



Показать сообщения:    

Текущее время: 08-Дек 07:05

Часовой пояс: UTC + 3


Вы не можете начинать темы
Вы не можете отвечать на сообщения
Вы не можете редактировать свои сообщения
Вы не можете удалять свои сообщения
Вы не можете голосовать в опросах
Вы не можете прикреплять файлы к сообщениям
Вы не можете скачивать файлы

!ВНИМАНИЕ!
Сайт не предоставляет электронные версии произведений, а занимается лишь коллекционированием и каталогизацией ссылок, присылаемых и публикуемых на форуме нашими читателями. Если вы являетесь правообладателем какого-либо представленного материала и не желаете, чтобы ссылка на него находилась в нашем каталоге, свяжитесь с нами, и мы незамедлительно удалим ее. Файлы для обмена на трекере предоставлены пользователями сайта, и администрация не несет ответственности за их содержание. Просьба не заливать файлы, защищенные авторскими правами, а также файлы нелегального содержания!