[ Сегодня идет свободное скачивание без начисления Download ]


Статистика раздачи
Нет
 
   
 
Top  
 
 
Сборник мультфильмов - Союзмультфильм: В гостях у сказки [07 шт] (1954-1991)
Страна: СССР
Производство: Союзмультфильм
Жанр: мультфильм, короткометражка
Год выпуска: 1954-1991
Продолжительность: 01:41:20
Перевод: Не требуется
Cубтитры: нет
Оригинальная аудиодорожка: русский
Режиссер: Михаил Цехановский, Фёдор Хитрук, Борис Дежкин...
Описание:
«Союзмультфильм» — крупнейшая в СССР студия мультипликационных фильмов, основанная в Москве 10 июня 1936 года. Студия создана 10 июня 1936 года с названием — «Союздетмультфильм» (из объединения мелких коллективов Мосфильма, Совкино и Межрабпромфильма), а с 20 августа 1937 года ее переименовали в «Союзмультфильм». Хотя приказ о создании студии был подписан начальником Главного Управления кинофотопромышленности, считается, что решение о создании студии мультипликационных фильмов исходило лично от И. В. Сталина. Для студии были выделены помещения закрытых Советской властью храмов: Николая Чудотворца в Новой слободе на Долгоруковской улице (в советское время — Каляевской улице), где находилось производство рисованных фильмов, и Спаса Преображения «что на Песках» в Спасопесковском переулке на Арбате, где располагалось «Творческое объединение кукольных фильмов». Храм на Арбате в 1991 году был возвращен Русской Православной Церкви, а храм на ул. Долгоруковской не возвращен РПЦ до сих пор, хотя решения о необходимости, в принципе, вернуть Церкви отнятые у неё храмы принимались уже более 15 лет назад. В настоящее время здание на Долгоруковской ул. дом 25 находится в федеральной собственности и закреплено на праве хозяйственного ведения за ФГУП "ТПО "Киностудия «Союзмультфильм».
Первый мультфильм, выпущенный студией, назывался «В Африке жарко» (1936 год). С 1937 года начали выпускаться цветные мультфильмы. На студии снято более 1500 мультфильмов.- -Источник: DVD5 R5
Качество видео: DVDRip-AVC
Формат видео: MKV
Видео: 720->760x570 (4:3), 25 fps, H264 ~ 1867 kbps avg, 0.182 bit/pixel
Аудио: 48 kHz, Dolby Digital AC3 2.0, 192 kbps
Раздача от:

Список мультфильмов

01. Золотая антилопа (1954) 0:29:45
02. Вовка в Тридевятом царстве (1965) 0:18:57
03. Мой зеленый крокодил (1966) 0:08:45
04. Самый младший дождик (1971) 0:09:05
05. Новый Алладин (1979) 0:09:41
06. Замок лгунов (1983) 0:16:02
07. Мисс Новый год (1991) 0:09:05

MediaInfo

Общее
Полное имя : Sbornik.multfilmov.1954-1991.DVDRip-AVC_[New-team]_by_AVP_Studio.mkv
Формат : Matroska
Версия формата : Version 2
Размер файла : 236 Мбайт
Продолжительность : 16 м.
Общий поток : 2060 Кбит/сек
Дата кодирования : UTC 2016-04-06 12:49:24
Программа кодирования : mkvmerge v6.1.0 ('Old Devil') built on Mar 4 2013 09:10:42
Библиотека кодирования : libebml v1.3.0 + libmatroska v1.4.0
Видео
Идентификатор : 1
Формат : AVC
Формат/Информация : Advanced Video Codec
Профиль формата : [email protected]
Параметр CABAC формата : Да
Параметр ReFrames формата : 10 кадров
Идентификатор кодека : V_MPEG4/ISO/AVC
Продолжительность : 16 м.
Битрейт : 1867 Кбит/сек
Ширина : 720 пикселей
Высота : 570 пикселей
Соотношение сторон : 4:3
Режим частоты кадров : Постоянный
Частота кадров : 25,000 кадров/сек
Цветовое пространство : YUV
Субдискретизация насыщенности : 4:2:0
Битовая глубина : 8 бит
Тип развёртки : Прогрессивная
Бит/(Пиксели*Кадры) : 0.182
Размер потока : 210 Мбайт (89%)
Библиотека кодирования : x264 core 148 r2597 e86f3a1
Настройки программы : cabac=1 / ref=10 / deblock=1:-2:-1 / analyse=0x3:0x113 / me=umh / subme=10 / psy=1 / psy_rd=1.00:0.00 / mixed_ref=1 / me_range=32 / chroma_me=1 / trellis=2 / 8x8dct=1 / cqm=0 / deadzone=21,11 / fast_pskip=1 / chroma_qp_offset=-2 / threads=6 / lookahead_threads=1 / sliced_threads=0 / nr=0 / decimate=0 / interlaced=0 / bluray_compat=0 / constrained_intra=0 / bframes=8 / b_pyramid=2 / b_adapt=2 / b_bias=0 / direct=3 / weightb=1 / open_gop=0 / weightp=2 / keyint=250 / keyint_min=25 / scenecut=40 / intra_refresh=0 / rc=2pass / mbtree=0 / bitrate=1867 / ratetol=1.0 / qcomp=0.60 / qpmin=0 / qpmax=69 / qpstep=4 / cplxblur=20.0 / qblur=0.5 / ip_ratio=1.40 / pb_ratio=1.30 / aq=1:1.00
Default : Да
Forced : Нет
Аудио
Идентификатор : 2
Формат : AC-3
Формат/Информация : Audio Coding 3
Расширение режима : CM (complete main)
Параметр Endianness формата : Big
Идентификатор кодека : A_AC3
Продолжительность : 16 м.
Вид битрейта : Постоянный
Битрейт : 192 Кбит/сек
Каналы : 2 канала
Расположение каналов : Front: L R
Частота : 48,0 КГц
Частота кадров : 31,250 кадров/сек (1536 spf)
Метод сжатия : С потерями
Размер потока : 22,0 Мбайт (9%)
Язык : Russian
Default : Да
Forced : Нет
Statistics Tags Issue : mkvmerge v9.0.1 ('Obstacles') 64bit 2016-04-06 09:03:39 / mkvmerge v6.1.0 ('Old Devil') built on Mar 4 2013 09:10:42 2016-04-06 12:49:24
FromStats_BitRate : 192000
FromStats_Duration : 00:16:02.464000000
FromStats_FrameCount : 30077
FromStats_StreamSize : 23099136

Скриншоты

[Цитировать]



Показать сообщения:    

Текущее время: 06-Дек 19:06

Часовой пояс: UTC + 3


Вы не можете начинать темы
Вы не можете отвечать на сообщения
Вы не можете редактировать свои сообщения
Вы не можете удалять свои сообщения
Вы не можете голосовать в опросах
Вы не можете прикреплять файлы к сообщениям
Вы не можете скачивать файлы

!ВНИМАНИЕ!
Сайт не предоставляет электронные версии произведений, а занимается лишь коллекционированием и каталогизацией ссылок, присылаемых и публикуемых на форуме нашими читателями. Если вы являетесь правообладателем какого-либо представленного материала и не желаете, чтобы ссылка на него находилась в нашем каталоге, свяжитесь с нами, и мы незамедлительно удалим ее. Файлы для обмена на трекере предоставлены пользователями сайта, и администрация не несет ответственности за их содержание. Просьба не заливать файлы, защищенные авторскими правами, а также файлы нелегального содержания!