[ Сегодня идет свободное скачивание без начисления Download ]


Статистика раздачи
Нет
 
   
 
Top  
 
 
Звездные войны: Сага / Star Wars: The Complete Saga (1977-2015) BDRip-AVC | 60 fps Культовая эпическая фантастическая сага, включающая в себя 6 кинофильмов, а также анимационные сериалы, мультфильмы, телефильмы, книги, комиксы, видеоигры — все пронизанные единой сюжетной линией и созданные в единой фантастической Вселенной «Звёздных войн», задуманной и реализованной американским режиссёром Джорджем Лукасом в начале 1970-х годов и позднее расширенной.

Звездные войны: Эпизод 1 – Скрытая угроза

Название: Звездные войны: Эпизод 1 – Скрытая угроза
Оригинальное название: Star Wars: Episode I - The Phantom Menace
Год выпуска: 1999
Страна: США
Жанр: фантастика, фэнтези, боевик, приключения
Продолжительность: 02:16:10
Перевод: Dub, DVO, AVO, Original
Субтитры: русские (Форсированные), русские (Полные Blu-ray CEE), русские (Полные Tycoon), русские (Комментарии 1), русские (Комментарии 2), английские (Полные), английские (Комментарии 1), английские (Комментарии 2)
Режиссер: Джордж Лукас
В ролях: Лиам Нисон (Qui-Gon Jinn), Юэн МакГрегор (Obi-Wan Kenobi), Натали Портман (Queen Amidala / Padmé), Джейк Ллойд (Anakin Skywalker), Иен МакДермид (Senator Palpatine), Рэй Парк (Darth Maul), Теренс Стэмп (Chancellor Valorum), Сэмюэл Л. Джексон (Mace Windu), Пернилла Аугуст (Shmi Skywalker), Хью Куарши (Captain Panaka), Оливер Форд Дейвис (Sio Bibble), Ахмед Бест (Jar Jar Binks, озвучка)
Описание:
Мирная и процветающая планета Набу. Торговая федерация, не желая платить налоги, вступает в прямой конфликт с королевой Амидалой, правящей на планете, что приводит к войне. На стороне королевы и республики в ней участвуют два рыцаря-джедая: учитель и ученик, Квай-Гон-Джин и Оби-Ван Кеноби...
Рейтинг:

MPAA: PG - Рекомендуется присутствие родителей
Качество: BDRip-AVC 60fps
Формат: MKV
Видео: AVC, 1024x432 (2.35:1), 3420 kbps, 60 fps, 0,129 bpp
Аудио 1: русский / AC3 / 5.1 / 48 kHz / 640 kbps / 16 bit
Аудио 2: русский / AC3 / 5.1 / 48 kHz / 640 kbps / 16 bit |(DVO) Tycoon-Studio (Отдельно в папке)|
Аудио 3: русский / AC3 / 5.1 / 48 kHz / 640 kbps / 16 bit |(AVO) А.Гаврилов (Отдельно в папке)|
Аудио 4: русский / AC3 / 5.1 / 48 kHz / 640 kbps / 16 bit |(AVO) Ю.Живов (Отдельно в папке)|
Аудио 5: английский / AC3 / 5.1 / 48 kHz / 640 kbps / 16 bit |(Original) Оригинал (Отдельно в папке)|
Аудио 6: английский / AC3 / 2.0 / 48 kHz / 224 kbps / 16 bit |(Commentary) Комментарии 1 (Отдельно в папке)|
Аудио 7: английский / AC3 / 2.0 / 48 kHz / 224 kbps / 16 bit |(Commentary) Комментарии 2 (Отдельно в папке)|
Навигация по главам: есть

ОтчетМедиаИнфо

General
Unique ID : 196686797504605963297659656714957089094 (0x93F87FD1FDF9469D88CB6CDEAC9BE946)
Format : Matroska
Format version : Version 4 / Version 2
File size : 3.94 GiB
Duration : 2h 16mn
Overall bit rate mode : Variable
Overall bit rate : 4 143 Kbps
Movie name : Tiberiumsun69
Encoded date : UTC 2016-04-02 04:16:42
Writing application : mkvmerge v8.3.0 ('Over the Horizon') 64bit
Writing library : libebml v1.3.1 + libmatroska v1.4.2
DURATION : 02:16:10.944000000
NUMBER_OF_FRAMES : 255342
NUMBER_OF_BYTES : 653675520
_STATISTICS_WRITING_APP : mkvmerge v8.3.0 ('Over the Horizon') 64bit
_STATISTICS_WRITING_DATE_UTC : 2016-04-02 04:16:42
_STATISTICS_TAGS : BPS DURATION NUMBER_OF_FRAMES NUMBER_OF_BYTES
Attachment : Yes
Video
ID : 1
Format : AVC
Format/Info : Advanced Video Codec
Format profile : High@L4.1
Format settings, CABAC : Yes
Format settings, ReFrames : 3 frames
Codec ID : V_MPEG4/ISO/AVC
Duration : 2h 16mn
Bit rate mode : Variable
Bit rate : 3 421 Kbps
Maximum bit rate : 4 000 Kbps
Width : 1 024 pixels
Height : 432 pixels
Display aspect ratio : 2.35:1
Frame rate : 60.000 fps
Standard : NTSC
Color space : YUV
Chroma subsampling : 4:2:0
Bit depth : 8 bits
Scan type : Progressive
Bits/(Pixel*Frame) : 0.129
Stream size : 3.25 GiB (83%)
Title : Tiberiumsun69
Language : English
Default : Yes
Forced : No
Color primaries : BT.601-6 525, BT.1358 525, BT.1700 NTSC, SMPTE 170M
Transfer characteristics : BT.601-6 525, BT.601-6 625, BT.1358 525, BT.1358 625, BT.1700 NTSC, SMPTE 170M
Matrix coefficients : BT.601-6 525, BT.1358 525, BT.1700 NTSC, SMPTE 170M
Audio
ID : 2
Format : AC-3
Format/Info : Audio Coding 3
Mode extension : CM (complete main)
Codec ID : A_AC3
Duration : 2h 16mn
Bit rate mode : Constant
Bit rate : 640 Kbps
Channel(s) : 6 channels
Channel positions : Front: L C R, Side: L R, LFE
Sampling rate : 48.0 KHz
Bit depth : 16 bits
Compression mode : Lossy
Stream size : 623 MiB (15%)
Title : Дубляж Blu-ray CEE
Language : Russian
Default : Yes
Forced : No
Text #1
ID : 3
Format : UTF-8
Codec ID : S_TEXT/UTF8
Codec ID/Info : UTF-8 Plain Text
Title : Форсированные
Language : Russian
Default : Yes
Forced : No
Text #2
ID : 4
Format : UTF-8
Codec ID : S_TEXT/UTF8
Codec ID/Info : UTF-8 Plain Text
Title : Полные Blu-ray CEE
Language : Russian
Default : No
Forced : No
Text #3
ID : 5
Format : UTF-8
Codec ID : S_TEXT/UTF8
Codec ID/Info : UTF-8 Plain Text
Title : Полные Tycoon
Language : Russian
Default : No
Forced : No
Text #4
ID : 6
Format : UTF-8
Codec ID : S_TEXT/UTF8
Codec ID/Info : UTF-8 Plain Text
Title : Комментарии 1
Language : Russian
Default : No
Forced : No
Text #5
ID : 7
Format : UTF-8
Codec ID : S_TEXT/UTF8
Codec ID/Info : UTF-8 Plain Text
Title : Комментарии 2
Language : Russian
Default : No
Forced : No
Text #6
ID : 8
Format : UTF-8
Codec ID : S_TEXT/UTF8
Codec ID/Info : UTF-8 Plain Text
Title : Полные
Language : English
Default : No
Forced : No
Text #7
ID : 9
Format : UTF-8
Codec ID : S_TEXT/UTF8
Codec ID/Info : UTF-8 Plain Text
Title : Комментарии 1
Language : English
Default : No
Forced : No
Text #8
ID : 10
Format : UTF-8
Codec ID : S_TEXT/UTF8
Codec ID/Info : UTF-8 Plain Text
Title : Комментарии 2
Language : English
Default : No
Forced : No
Menu #1
00:00:00.000 : en:Opening Logos
00:00:21.104 : en:Queen Amidala
00:01:52.738 : en:The Phantom Menace
00:07:55.350 : en:Short Negotiations
00:09:55.970 : en:Landing on Naboo
00:11:18.761 : en:Jar Jar Binks
00:13:24.178 : en:The Planet Core
00:14:49.806 : en:Otoh Gunga
00:17:14.242 : en:Boss Nass
00:20:40.948 : en:Invasion of Theed
00:22:25.302 : en:Surprise Rescue
00:25:12.886 : en:Watto's Shop
00:29:32.813 : en:Running the Blockade
00:31:41.483 : en:Tatooine
00:35:51.733 : en:Fateful Meetings
00:40:48.571 : en:Dinner Conversation
00:44:16.320 : en:Meet the Podracers
00:52:04.580 : en:Preparing for the Race
00:55:03.842 : en:A Wager With Watto
00:58:27.921 : en:Begin the Race
01:02:27.702 : en:Lap Two
01:05:33.012 : en:Choosing a New Path
01:10:06.911 : en:Home Stretch
01:11:17.940 : en:Collecting the Prize
01:16:20.951 : en:Darth Maul Attacks
01:18:08.100 : en:The Queen's Worries
01:20:26.363 : en:Senate Session
01:24:18.178 : en:Arrival on Coruscant
01:26:44.783 : en:The Jedi Council
01:29:54.723 : en:Testing Anakin
01:31:02.415 : en:Palpatine's Nomination
01:33:08.541 : en:A Plea to the Gungans
01:37:21.419 : en:Anakin's Future
01:39:06.315 : en:The Queen's Gambit
01:42:33.731 : en:Battle Plans
01:44:41.567 : en:'Wipe Them Out'
01:46:19.248 : en:Duel of the Fates
01:48:07.731 : en:Retaking the Palace
01:50:24.952 : en:The Conflict Continues
01:56:47.667 : en:Gungan Retreat
01:59:13.063 : en:Qui-Gon vs. Darth Maul
02:00:31.391 : en:Control Ship Destroyed
02:01:21.316 : en:Capturing the Viceroy
02:02:23.378 : en:Obi-Wan vs. Darth Maul
02:03:56.971 : en:A Sith Vanquished
02:05:15.133 : en:Chancellor Palpatine Arrives
02:06:25.995 : en:Naboo Celebration
02:07:23.177 : en:New Knight New Apprentice
02:08:28.993 : en:Farewell to a Jedi
02:09:53.536 : en:End Credits
Menu #2
00:00:00.097 : en:00:00:00.097 / en:00:00:00.097

Звёздные войны: Эпизод 2 – Атака клонов

Название: Звёздные войны: Эпизод 2 – Атака клонов
Оригинальное название: Star Wars: Episode II - Attack of the Clones
Год выпуска: 2002
Страна: США
Жанр: фантастика, фэнтези, боевик, приключения
Продолжительность: 02:22:27
Перевод: Dub, DVO, AVO, Original
Субтитры: русские (Форсированные), русские (Полные Blu-ray CEE), русские (Полные Tycoon), русские (Комментраии 1), русские (Комментарии 2), английские (Полные), английские (Комментарии 1), английские (Комментарии 2)
Режиссер: Джордж Лукас
В ролях: Юэн МакГрегор (Obi-Wan Kenobi), Хейден Кристенсен (Anakin Skywalker), Натали Портман (Padmé), Кристофер Ли (Count Dooku / Darth Tyranus), Сэмюэл Л. Джексон (Mace Windu), Фрэнк Оз (Yoda, озвучка), Иен МакДермид (Supreme Chancellor Palpatine), Пернилла Аугуст (Shmi Skywalker), Темуэра Моррисон (Jango Fett), Джимми Смитс (Senator Bail Organa), Джек Томпсон (Cliegg Lars), Лианна Уолсмен (Zam Wesell)
Описание:
Действие разворачивается через 10 лет после событий, описанных в первом эпизоде знаменитой саги. Республика все глубже погружается в пучину противоречий и хаоса. Движение сепаратистов, представленное сотнями планет и могущественным альянсом корпораций, грозит стать новой угрозой для Галактики, с которой не смогут справиться даже джедаи.
Назревающий конфликт, заранее спланированный могущественными, но пока еще не разоблаченными силами, ведет к началу Клонических войн и к закату республики. Чтобы противостоять угрозе вселенских масштабов, Верховный канцлер Палпатин добивается консолидации власти в республике в своих руках и отдает приказ о создании республиканской армии для поддержки малочисленной группы джедаев в их борьбе с превосходящим противником.
Рейтинг:

MPAA: PG - Рекомендуется присутствие родителей
Качество: BDRip-AVC 60fps
Формат: MKV
Видео: AVC, 1024x432 (2.35:1), 3271 kbps, 60 fps, 0,123 bpp
Аудио 1: русский / AC3 / 5.1 / 48 kHz / 640 kbps / 16 bit
Аудио 2: русский / AC3 / 5.1 / 48 kHz / 640 kbps / 16 bit |(DVO) Tycoon-Studio (Отдельно в папке)|
Аудио 3: русский / AC3 / 5.1 / 48 kHz / 640 kbps / 16 bit |(AVO) А.Гаврилов (Отдельно в папке)|
Аудио 4: русский / AC3 / 5.1 / 48 kHz / 640 kbps / 16 bit |(AVO) Ю.Живов (Отдельно в папке)|
Аудио 5: английский / AC3 / 5.1 / 48 kHz / 640 kbps / 16 bit |(Original) Оригинал (Отдельно в папке)|
Аудио 6: английский / AC3 / 2.0 / 48 kHz / 224 kbps / 16 bit |(Commentary) Комментарии 1 (Отдельно в папке)|
Аудио 7: английский / AC3 / 2.0 / 48 kHz / 224 kbps / 16 bit |(Commentary) Комментарии 2 (Отдельно в папке)|
Навигация по главам: есть

ОтчетМедиаИнфо

General
Unique ID : 230693675770411906064951576412311477046 (0xAD8DFC5E5A26E10AB6F3BCB056B75B36)
Format : Matroska
Format version : Version 4 / Version 2
File size : 3.97 GiB
Duration : 2h 22mn
Overall bit rate mode : Variable
Overall bit rate : 3 990 Kbps
Movie name : Tiberiumsun69
Encoded date : UTC 2016-04-02 05:28:38
Writing application : mkvmerge v8.3.0 ('Over the Horizon') 64bit
Writing library : libebml v1.3.1 + libmatroska v1.4.2
DURATION : 02:14:00.017000000
NUMBER_OF_FRAMES : 185
NUMBER_OF_BYTES : 2134
_STATISTICS_WRITING_APP : mkvmerge v8.3.0 ('Over the Horizon') 64bit
_STATISTICS_WRITING_DATE_UTC : 2016-04-02 05:28:38
_STATISTICS_TAGS : BPS DURATION NUMBER_OF_FRAMES NUMBER_OF_BYTES
Attachment : Yes
Video
ID : 1
Format : AVC
Format/Info : Advanced Video Codec
Format profile : High@L4.1
Format settings, CABAC : Yes
Format settings, ReFrames : 3 frames
Format settings, GOP : M=3, N=60
Codec ID : V_MPEG4/ISO/AVC
Duration : 2h 22mn
Bit rate mode : Variable
Bit rate : 3 271 Kbps
Maximum bit rate : 4 000 Kbps
Width : 1 024 pixels
Height : 432 pixels
Display aspect ratio : 2.35:1
Frame rate : 60.000 fps
Standard : NTSC
Color space : YUV
Chroma subsampling : 4:2:0
Bit depth : 8 bits
Scan type : Progressive
Bits/(Pixel*Frame) : 0.123
Stream size : 3.26 GiB (82%)
Title : Tiberiumsun69
Language : English
Default : Yes
Forced : No
Color primaries : BT.601-6 525, BT.1358 525, BT.1700 NTSC, SMPTE 170M
Transfer characteristics : BT.601-6 525, BT.601-6 625, BT.1358 525, BT.1358 625, BT.1700 NTSC, SMPTE 170M
Matrix coefficients : BT.601-6 525, BT.1358 525, BT.1700 NTSC, SMPTE 170M
Audio
ID : 2
Format : AC-3
Format/Info : Audio Coding 3
Mode extension : CM (complete main)
Codec ID : A_AC3
Duration : 2h 22mn
Bit rate mode : Constant
Bit rate : 640 Kbps
Channel(s) : 6 channels
Channel positions : Front: L C R, Side: L R, LFE
Sampling rate : 48.0 KHz
Bit depth : 16 bits
Compression mode : Lossy
Stream size : 652 MiB (16%)
Title : Дубляж Blu-ray CEE
Language : Russian
Default : Yes
Forced : No
Text #1
ID : 3
Format : UTF-8
Codec ID : S_TEXT/UTF8
Codec ID/Info : UTF-8 Plain Text
Title : Форсированные
Language : Russian
Default : Yes
Forced : No
Text #2
ID : 4
Format : UTF-8
Codec ID : S_TEXT/UTF8
Codec ID/Info : UTF-8 Plain Text
Title : Полные Blu-ray CEE
Language : Russian
Default : No
Forced : No
Text #3
ID : 5
Format : UTF-8
Codec ID : S_TEXT/UTF8
Codec ID/Info : UTF-8 Plain Text
Title : Полные Tycoon
Language : Russian
Default : No
Forced : No
Text #4
ID : 6
Format : UTF-8
Codec ID : S_TEXT/UTF8
Codec ID/Info : UTF-8 Plain Text
Title : Комментраии 1
Language : Russian
Default : No
Forced : No
Text #5
ID : 7
Format : UTF-8
Codec ID : S_TEXT/UTF8
Codec ID/Info : UTF-8 Plain Text
Title : Комментарии 2
Language : Russian
Default : No
Forced : No
Text #6
ID : 8
Format : UTF-8
Codec ID : S_TEXT/UTF8
Codec ID/Info : UTF-8 Plain Text
Title : Полные
Language : English
Default : No
Forced : No
Text #7
ID : 9
Format : UTF-8
Codec ID : S_TEXT/UTF8
Codec ID/Info : UTF-8 Plain Text
Title : Комментарии 1
Language : English
Default : No
Forced : No
Text #8
ID : 10
Format : UTF-8
Codec ID : S_TEXT/UTF8
Codec ID/Info : UTF-8 Plain Text
Title : Комментарии 2
Language : English
Default : No
Forced : No
Menu #1
00:00:00.000 : en:Opening Logos
00:00:23.440 : en:Attack of the Clones
00:01:50.527 : en:Return to Coruscant
00:04:22.095 : en:Chancellor's Meeting
00:07:00.003 : en:Old Friends
00:10:28.962 : en:Assassins
00:14:19.901 : en:Speeder Chase
00:21:35.294 : en:Into the Club
00:24:48.237 : en:New Assignments
00:29:45.867 : en:Traveling Incognito
00:31:33.475 : en:Dex's Diner
00:33:48.526 : en:Jedi Archives
00:34:50.505 : en:"Encouraged to Love"
00:36:05.121 : en:Yoda and the Younglings
00:38:25.929 : en:Return to Naboo
00:39:25.363 : en:Audience With the Queen
00:40:56.371 : en:Kamino Arrival
00:42:12.780 : en:Meeting Lama Su
00:44:02.014 : en:Stolen Kiss
00:45:50.414 : en:Inspecting the Clones
00:47:50.076 : en:Teasing a Senator
00:50:21.018 : en:Jango's Apartment
00:53:01.428 : en:Forbidden Love
00:56:44.818 : en:Obi-Wan's Report
00:58:56.700 : en:Nightmare
01:00:46.059 : en:Obi-Wan vs. Jango
01:03:41.192 : en:Back to Tatooine
01:06:24.355 : en:Asteroid Chase
01:11:18.774 : en:Lars' Homestead
01:14:01.354 : en:Anakin's Search
01:15:23.477 : en:Dooku's Separatist Plot
01:17:48.873 : en:Tusken Camp
01:21:40.354 : en:Out of Range
01:23:46.897 : en:"You're Not All-Powerful"
01:28:10.160 : en:Enemies Revealed
01:30:52.906 : en:Obi-Wan Captive
01:33:38.488 : en:Emergency Powers
01:35:27.847 : en:Droid Factory
01:42:44.867 : en:Love Pledge
01:45:14.016 : en:The Arena
01:49:53.629 : en:"This Party Is Over"
01:56:22.475 : en:Yoda's Cavalry
01:57:47.602 : en:Clone War
02:00:29.180 : en:War Room
02:04:48.981 : en:Duel With Dooku
02:07:41.946 : en:Master Yoda
02:11:23.667 : en:"Well Done Lord Tyranus"
02:12:54.884 : en:"Begun, the Clone War Has"
02:14:49.248 : en:Secret Union
02:15:54.938 : en:End Credits
Menu #2
00:00:00.097 : en:00:00:00.097 / en:00:00:00.097

Звёздные войны: Эпизод 3 – Месть Ситхов

Название: Звёздные войны: Эпизод 3 – Месть Ситхов
Оригинальное название: Star Wars: Episode III - Revenge of the Sith
Год выпуска: 2005
Страна: США
Жанр: фантастика, фэнтези, боевик, приключения
Продолжительность: 02:20:05
Перевод: Dub, DVO, AVO, Original
Субтитры: русские (Форсированные), русские (Полные Blu-ray CEE), русские (Полные Tycoon), русские (Комментарии 1), русские (Комментарии 2), английские (Полные), английские (Комментарии 1), английские (Комментарии 2)
Режиссер: Джордж Лукас
В ролях: Юэн МакГрегор (Obi-Wan Kenobi), Натали Портман (Padmé), Хейден Кристенсен (Anakin Skywalker), Иен МакДермид (Supreme Chancellor Palpatine), Сэмюэл Л. Джексон (Mace Windu), Джимми Смитс (Senator Bail Organa), Фрэнк Оз (Yoda, озвучка), Энтони Дэниелс (C-3PO), Кристофер Ли (Count Dooku), Киша Касл-Хьюз (Queen of Naboo), Сайлас Карсон (Ki-Adi-Mundi / Nute Gunray), Джей Лагаая (Captain Typho)
Описание:
Со времен, описанных во втором эпизоде, прошло 3 года. Энакин окончательно встает на темную сторону силы и превращается в Дарта Вейдера. Республика гибнет под ударами крепнущей Империи, Джедаи теряют контроль над галактикой, а Падме готовится к тому, чтобы стать матерью. Все эти события будут разворачиваться на фоне грандиозной битвы, знаменующей финал Клонических войн...
Рейтинг:

MPAA: PG-13 - Детям до 13 лет просмотр не желателен
Качество: BDRip-AVC 60fps
Формат: MKV
Видео: AVC, 1024x440 (2.35:1), 3348 kbps, 60 fps, 0,124 bpp
Аудио 1: русский / AC3 / 5.1 / 48 kHz / 640 kbps / 16 bit
Аудио 2: русский / AC3 / 5.1 / 48 kHz / 640 kbps / 16 bit |(DVO) Tycoon-Studio (Отдельно в папке)|
Аудио 3: русский / AC3 / 5.1 / 48 kHz / 640 kbps / 16 bit |(AVO) А.Гаврилов (Отдельно в папке)|
Аудио 4: русский / AC3 / 5.1 / 48 kHz / 640 kbps / 16 bit |(AVO) В.Королев (Отдельно в папке)|
Аудио 5: английский / AC3 / 5.1 / 48 kHz / 640 kbps / 16 bit |(Original) Оригинал (Отдельно в папке)|
Аудио 6: английский / AC3 / 2.0 / 48 kHz / 224 kbps / 16 bit |(Commentary) Комментарии 1 (Отдельно в папке)|
Аудио 7: английский / AC3 / 2.0 / 48 kHz / 224 kbps / 16 bit |(Commentary) Комментарии 2 (Отдельно в папке)|
Навигация по главам: есть

ОтчетМедиаИнфо

General
Unique ID : 201805253493320822672246225241704144692 (0x97D2472F2F8025688DD7BE5506C29F34)
Format : Matroska
Format version : Version 4 / Version 2
File size : 3.98 GiB
Duration : 2h 20mn
Overall bit rate mode : Variable
Overall bit rate : 4 070 Kbps
Movie name : Tiberiumsun69
Encoded date : UTC 2016-04-02 06:48:44
Writing application : mkvmerge v8.3.0 ('Over the Horizon') 64bit
Writing library : libebml v1.3.1 + libmatroska v1.4.2
DURATION : 02:20:05.888000000
NUMBER_OF_FRAMES : 262684
NUMBER_OF_BYTES : 672471040
_STATISTICS_WRITING_APP : mkvmerge v8.3.0 ('Over the Horizon') 64bit
_STATISTICS_WRITING_DATE_UTC : 2016-04-02 06:48:44
_STATISTICS_TAGS : BPS DURATION NUMBER_OF_FRAMES NUMBER_OF_BYTES
Attachment : Yes
Video
ID : 1
Format : AVC
Format/Info : Advanced Video Codec
Format profile : High@L4.1
Format settings, CABAC : Yes
Format settings, ReFrames : 3 frames
Format settings, GOP : M=3, N=60
Codec ID : V_MPEG4/ISO/AVC
Duration : 2h 20mn
Bit rate mode : Variable
Bit rate : 3 349 Kbps
Maximum bit rate : 4 000 Kbps
Width : 1 024 pixels
Height : 440 pixels
Display aspect ratio : 2.35:1
Frame rate : 60.000 fps
Standard : NTSC
Color space : YUV
Chroma subsampling : 4:2:0
Bit depth : 8 bits
Scan type : Progressive
Bits/(Pixel*Frame) : 0.124
Stream size : 3.28 GiB (82%)
Title : Tiberiumsun69
Language : English
Default : Yes
Forced : No
Color primaries : BT.601-6 525, BT.1358 525, BT.1700 NTSC, SMPTE 170M
Transfer characteristics : BT.601-6 525, BT.601-6 625, BT.1358 525, BT.1358 625, BT.1700 NTSC, SMPTE 170M
Matrix coefficients : BT.601-6 525, BT.1358 525, BT.1700 NTSC, SMPTE 170M
Audio
ID : 2
Format : AC-3
Format/Info : Audio Coding 3
Mode extension : CM (complete main)
Codec ID : A_AC3
Duration : 2h 20mn
Bit rate mode : Constant
Bit rate : 640 Kbps
Channel(s) : 6 channels
Channel positions : Front: L C R, Side: L R, LFE
Sampling rate : 48.0 KHz
Bit depth : 16 bits
Compression mode : Lossy
Stream size : 641 MiB (16%)
Title : Дубляж Blu-ray CEE
Language : Russian
Default : Yes
Forced : No
Text #1
ID : 3
Format : UTF-8
Codec ID : S_TEXT/UTF8
Codec ID/Info : UTF-8 Plain Text
Title : Форсированные
Language : Russian
Default : Yes
Forced : No
Text #2
ID : 4
Format : UTF-8
Codec ID : S_TEXT/UTF8
Codec ID/Info : UTF-8 Plain Text
Title : Полные Blu-ray CEE
Language : Russian
Default : No
Forced : No
Text #3
ID : 5
Format : UTF-8
Codec ID : S_TEXT/UTF8
Codec ID/Info : UTF-8 Plain Text
Title : Полные Tycoon
Language : Russian
Default : No
Forced : No
Text #4
ID : 6
Format : UTF-8
Codec ID : S_TEXT/UTF8
Codec ID/Info : UTF-8 Plain Text
Title : Комментарии 1
Language : Russian
Default : No
Forced : No
Text #5
ID : 7
Format : UTF-8
Codec ID : S_TEXT/UTF8
Codec ID/Info : UTF-8 Plain Text
Title : Комментарии 2
Language : Russian
Default : No
Forced : No
Text #6
ID : 8
Format : UTF-8
Codec ID : S_TEXT/UTF8
Codec ID/Info : UTF-8 Plain Text
Title : Полные
Language : English
Default : No
Forced : No
Text #7
ID : 9
Format : UTF-8
Codec ID : S_TEXT/UTF8
Codec ID/Info : UTF-8 Plain Text
Title : Комментарии 1
Language : English
Default : No
Forced : No
Text #8
ID : 10
Format : UTF-8
Codec ID : S_TEXT/UTF8
Codec ID/Info : UTF-8 Plain Text
Title : Комментарии 2
Language : English
Default : No
Forced : No
Menu #1
00:00:00.000 : en:Opening Logos
00:00:23.523 : en:Revenge of the Sith
00:01:50.068 : en:Battle Over Coruscant
00:08:28.133 : en:General Grievous
00:11:23.349 : en:Rescuing the Chancellor
00:18:33.738 : en:Confronting Grievous
00:23:40.461 : en:Happy Reunions
00:27:37.698 : en:Grievous on Utapau
00:29:12.960 : en:Bad Dreams
00:33:18.914 : en:Counsel With Yoda
00:35:45.435 : en:The Chancellor's Request
00:36:47.997 : en:On the Jedi Council
00:38:21.466 : en:Secret Assignment
00:40:17.457 : en:Not the Chosen One?
00:41:18.601 : en:Seeds of Distrust
00:42:41.058 : en:Tragedy of Darth Plagueis
00:48:01.587 : en:Kashyyyk
00:50:20.517 : en:Brothers' Farewell
00:52:24.933 : en:A Hero Lost
00:53:58.026 : en:Arrival on Utapau
00:56:26.466 : en:Obi-Wan Vs. Grievous
01:00:56.278 : en:Jedi War Council
01:01:56.546 : en:Sidious Revealed
01:05:26.047 : en:Utapau Chase
01:07:40.598 : en:Mace Learns the Truth
01:09:06.976 : en:Anakin's Fatal Decision
01:10:52.999 : en:Mace Vs. Sidious
01:15:19.223 : en:Rise Lord Vader
01:19:15.250 : en:March on the Jedi Temple
01:20:37.458 : en:Order Sixty-Six
01:24:20.597 : en:Time to Leave
01:27:56.521 : en:"Wait for Me"
01:29:57.392 : en:The Heroes Regroup
01:33:40.406 : en:Birth of the Empire
01:36:39.460 : en:The Terrible Truth
01:38:35.535 : en:Obi-Wan Confronts Padme
01:41:24.370 : en:Padme's Departure
01:42:57.004 : en:"You're Breaking My Heart"
01:48:18.784 : en:Yoda Visits the Emperor
01:50:59.444 : en:Battle of the Heroes
01:52:44.007 : en:Yoda Vs. Sidious
01:54:22.856 : en:Narrow Escapes
01:56:54.925 : en:Immolation
02:02:20.875 : en:The Emperor Arrives
02:03:32.864 : en:Secret Delivery
02:05:19.637 : en:Birth and Rebirth
02:07:37.108 : en:Darth Vader Awakes
02:08:57.063 : en:The Future of the Twins
02:12:04.959 : en:A New Hope
02:13:47.353 : en:End Credits
Menu #2
00:00:00.097 : en:00:00:00.097 / en:00:00:00.097

Звёздные войны: Эпизод 4 – Новая надежда

Название: Звёздные войны: Эпизод 4 – Новая надежда
Оригинальное название: Star Wars
Год выпуска: 1977
Страна: США
Жанр: фантастика, фэнтези, боевик, приключения
Продолжительность: 02:04:44
Перевод: Dub, DVO, AVO, Original
Субтитры: русские (Форсированные), русские (Полные Blu-ray CEE), русские (Полные Tycoon), русские (Комментарии 1), русские (Комментарии 2), английские (Полные), английские (Комментарии 1), английские (Комментарии 2)
Режиссер: Джордж Лукас
В ролях: Марк Хэмилл (Luke Skywalker), Харрисон Форд (Han Solo), Кэрри Фишер (Princess Leia Organa), Питер Кушинг (Grand Moff Tarkin), Алек Гиннесс (Ben Obi-Wan Kenobi), Энтони Дэниелс (C-3PO), Кенни Бейкер (R2-D2), Питер Мейхью (Chewbacca), Дэвид Праус (Darth Vader), Фил Браун (Uncle Owen), Шила Фрейзер (Aunt Beru), Джек Пёрвис (Chief Jawa)
Описание:
Татуин. Планета-пустыня. Уже постаревший рыцарь Джедай Оби Ван Кеноби спасает молодого Люка Скайуокера, когда тот пытается отыскать пропавшего дроида. С этого момента Люк осознает свое истинное назначение: он один из рыцарей Джедай. В то время как гражданская война охватила галактику, а войска повстанцев ведут бои против сил злого Императора, к Люку и Оби Вану присоединяется отчаянный пилот-наемник Хан Соло, и в сопровождении двух дроидов, R2D2 и C-3PO, этот необычный отряд отправляется на поиски предводителя повстанцев - принцессы Леи. Героям предстоит отчаянная схватка с устрашающим Дартом Вейдером - правой рукой Императора и его секретным оружием - «Звездой Смерти».
Рейтинг:

MPAA: PG - Рекомендуется присутствие родителей
Качество: BDRip-AVC 60fps
Формат: MKV
Видео: AVC, 1024x432 (2.35:1), 3783 kbps, 60 fps, 0,143 bpp
Аудио 1: русский / AC3 / 5.1 / 48 kHz / 640 kbps / 16 bit
Аудио 2: русский / AC3 / 5.1 / 48 kHz / 640 kbps / 16 bit |(DVO) Tycoon-Studio (Отдельно в папке)|
Аудио 3: русский / AC3 / 5.1 / 48 kHz / 640 kbps / 16 bit |(AVO) А.Гаврилов (Отдельно в папке)|
Аудио 4: русский / AC3 / 5.1 / 48 kHz / 640 kbps / 16 bit |(AVO) Ю.Живов (Отдельно в папке)|
Аудио 5: английский / AC3 / 5.1 / 48 kHz / 640 kbps / 16 bit |(Original) Оригинал (Отдельно в папке)|
Аудио 6: английский / AC3 / 2.0 / 48 kHz / 224 kbps / 16 bit |(Commentary) Комментарии 1 (Отдельно в папке)|
Аудио 7: английский / AC3 / 2.0 / 48 kHz / 224 kbps / 16 bit |(Commentary) Комментарии 2 (Отдельно в папке)|
Навигация по главам: есть

ОтчетМедиаИнфо

General
Unique ID : 243422611383551798737426857459363231128 (0xB7217D59139FFC018028FDF13FB63598)
Format : Matroska
Format version : Version 4 / Version 2
File size : 3.93 GiB
Duration : 2h 4mn
Overall bit rate mode : Variable
Overall bit rate : 4 513 Kbps
Movie name : Tiberiumsun69
Encoded date : UTC 2016-04-02 07:51:17
Writing application : mkvmerge v8.3.0 ('Over the Horizon') 64bit
Writing library : libebml v1.3.1 + libmatroska v1.4.2
DURATION : 02:04:44.768000000
NUMBER_OF_FRAMES : 233899
NUMBER_OF_BYTES : 598781440
_STATISTICS_WRITING_APP : mkvmerge v8.3.0 ('Over the Horizon') 64bit
_STATISTICS_WRITING_DATE_UTC : 2016-04-02 07:51:17
_STATISTICS_TAGS : BPS DURATION NUMBER_OF_FRAMES NUMBER_OF_BYTES
Attachment : Yes
Video
ID : 1
Format : AVC
Format/Info : Advanced Video Codec
Format profile : High@L4.1
Format settings, CABAC : Yes
Format settings, ReFrames : 3 frames
Codec ID : V_MPEG4/ISO/AVC
Duration : 2h 4mn
Bit rate mode : Variable
Bit rate : 3 783 Kbps
Maximum bit rate : 4 000 Kbps
Width : 1 024 pixels
Height : 432 pixels
Display aspect ratio : 2.35:1
Frame rate : 60.000 fps
Standard : NTSC
Color space : YUV
Chroma subsampling : 4:2:0
Bit depth : 8 bits
Scan type : Progressive
Bits/(Pixel*Frame) : 0.143
Stream size : 3.30 GiB (84%)
Title : Tiberiumsun69
Language : English
Default : Yes
Forced : No
Color primaries : BT.601-6 525, BT.1358 525, BT.1700 NTSC, SMPTE 170M
Transfer characteristics : BT.601-6 525, BT.601-6 625, BT.1358 525, BT.1358 625, BT.1700 NTSC, SMPTE 170M
Matrix coefficients : BT.601-6 525, BT.1358 525, BT.1700 NTSC, SMPTE 170M
Audio
ID : 2
Format : AC-3
Format/Info : Audio Coding 3
Mode extension : CM (complete main)
Codec ID : A_AC3
Duration : 2h 4mn
Bit rate mode : Constant
Bit rate : 640 Kbps
Channel(s) : 6 channels
Channel positions : Front: L C R, Side: L R, LFE
Sampling rate : 48.0 KHz
Bit depth : 16 bits
Compression mode : Lossy
Stream size : 571 MiB (14%)
Title : Дубляж Blu-ray CEE
Language : Russian
Default : Yes
Forced : No
Text #1
ID : 3
Format : UTF-8
Codec ID : S_TEXT/UTF8
Codec ID/Info : UTF-8 Plain Text
Title : Форсированные
Language : Russian
Default : Yes
Forced : No
Text #2
ID : 4
Format : UTF-8
Codec ID : S_TEXT/UTF8
Codec ID/Info : UTF-8 Plain Text
Title : Полные Blu-ray CEE
Language : Russian
Default : No
Forced : No
Text #3
ID : 5
Format : UTF-8
Codec ID : S_TEXT/UTF8
Codec ID/Info : UTF-8 Plain Text
Title : Полные Tycoon
Language : Russian
Default : No
Forced : No
Text #4
ID : 6
Format : UTF-8
Codec ID : S_TEXT/UTF8
Codec ID/Info : UTF-8 Plain Text
Title : Комментарии 1
Language : Russian
Default : No
Forced : No
Text #5
ID : 7
Format : UTF-8
Codec ID : S_TEXT/UTF8
Codec ID/Info : UTF-8 Plain Text
Title : Комментарии 2
Language : Russian
Default : No
Forced : No
Text #6
ID : 8
Format : UTF-8
Codec ID : S_TEXT/UTF8
Codec ID/Info : UTF-8 Plain Text
Title : Полные
Language : English
Default : No
Forced : No
Text #7
ID : 9
Format : UTF-8
Codec ID : S_TEXT/UTF8
Codec ID/Info : UTF-8 Plain Text
Title : Комментарии 1
Language : English
Default : No
Forced : No
Text #8
ID : 10
Format : UTF-8
Codec ID : S_TEXT/UTF8
Codec ID/Info : UTF-8 Plain Text
Title : Комментарии 2
Language : English
Default : No
Forced : No
Menu
00:00:00.000 : :Opening Logos
00:00:21.021 : :A New Hope
00:01:53.405 : :Imperial Boarding Party
00:04:52.792 : :Artoo's Mission
00:07:28.281 : :Vader Confronts the Princess
00:08:54.868 : :Lost in the Desert
00:11:21.389 : :Land of the Jawas
00:15:40.231 : :Droids for Sale
00:19:40.179 : :In the Garage
00:23:33.203 : :Lars Family Dinner
00:25:32.614 : :Binary Sunset
00:27:45.497 : :Attack of the Sand People
00:29:12.709 : :Meeting Old Ben
00:32:34.077 : :"Your Father's Lightsaber"
00:34:53.008 : :Leia's Message
00:36:54.212 : :The Death Star
00:39:05.635 : :Torched Homestead
00:41:42.291 : :Luke's Decision
00:42:31.549 : :Mos Eisley Spaceport
00:44:51.731 : :The Cantina
00:47:52.620 : :Han Solo
00:49:57.995 : :Cornered by Greedo
00:51:13.696 : :Death Star Destination
00:52:40.741 : :Jabba the Hutt
00:54:12.332 : :The Millennium Falcon
00:56:59.916 : :Alderaan's Fate
00:59:14.176 : :Lightsaber Training
01:03:10.829 : :"That's No Moon..."
01:06:16.472 : :Secret Compartment
01:08:21.973 : :Planning the Escape
01:12:32.390 : :Wookiee Prisoner
01:14:12.657 : :Rescuing the Princess
01:17:13.712 : :Into the Garbage Chute
01:19:09.328 : :The Trash Compactor
01:21:29.384 : :The Walls Close In
01:25:00.220 : :Deactivating the Tractor Beam
01:27:02.092 : :Back to the Ship
01:29:56.182 : :Obi-Wan Vs. Vader
01:33:48.456 : :Tie Fighter Attack
01:36:39.877 : :"They Let Us Go"
01:38:06.756 : :Arrival on Yavin 4
01:39:37.513 : :Rebel Briefing
01:41:24.996 : :Han's Departure
01:42:37.401 : :Luke and Biggs
01:45:02.630 : :Assault on the Death Star
01:49:42.785 : :Trench Runs
01:55:18.912 : :"Use the Force, Luke"
01:57:47.394 : :A Hero's Welcome
01:58:28.518 : :Medal Ceremony
02:00:14.499 : :End Credits

Звёздные войны: Эпизод 5 – Империя наносит ответный удар

Название: Звёздные войны: Эпизод 5 – Империя наносит ответный удар
Оригинальное название: Star Wars: Episode V - The Empire Strikes Back
Год выпуска: 1980
Страна: США
Жанр: фантастика, фэнтези, боевик, приключения
Продолжительность: 02:07:21
Перевод: Dub, DVo, AVO, Original
Субтитры: русские (Полные Blu-ray CEE), русские (Полные Tycoon), русские (Комментарии 1), русские (Комментарии 2), английские (Полные), английские (Комментарии 1), английские (Комментарии 2)
Режиссер: Ирвин Кершнер
В ролях: Марк Хэмилл (Luke Skywalker), Харрисон Форд (Han Solo), Кэрри Фишер (Princess Leia), Билли Ди Уильямс (Lando Calrissian), Энтони Дэниелс (C-3PO), Дэвид Праус (Darth Vader), Питер Мейхью (Chewbacca), Кенни Бейкер (R2-D2), Фрэнк Оз (Yoda, озвучка), Алек Гиннесс (Ben (Obi-Wan), Kenobi), Джереми Буллок (Boba Fett), Джон Холлис (Lando's Aide)
Описание:
Борьба за Галактику обостряется в пятом эпизоде космической саги. Войска Императора начинают массированную атаку на повстанцев и их союзников.
Хан Соло и принцесса Лейя укрываются в Заоблачном Городе, в котором их и захватывает Дарт Вейдер, в то время как Люк Скайуокер находится на таинственной планете джунглей Дагоба.
Там Мастер - джедай Йода обучает молодого рыцаря навыкам обретения Силы. Люк даже не предполагает, как скоро ему придется воспользоваться знаниями старого Мастера: впереди битва с превосходящими силами Императора и смертельный поединок с Дартом Вейдером.
Рейтинг:

MPAA: PG - Рекомендуется присутствие родителей
Качество: BDRip-AVC 60fps
Формат: MKV
Видео: AVC, 1024x432 (2.35:1), 3696 kbps, 60 fps, 0,139 bpp
Аудио 1: русский / AC3 / 5.1 / 48 kHz / 640 kbps / 16 bit
Аудио 2: русский / AC3 / 5.1 / 48 kHz / 640 kbps / 16 bit |(DVO) Tycoon-Studio (Отдельно в папке)|
Аудио 3: русский / AC3 / 5.1 / 48 kHz / 640 kbps / 16 bit |(AVO) А.Гаврилов (Отдельно в папке)|
Аудио 4: русский / AC3 / 5.1 / 48 kHz / 640 kbps / 16 bit |(AVO) Ю.Живов (Отдельно в папке)|
Аудио 5: английский / AC3 / 5.1 / 48 kHz / 640 kbps / 16 bit |(Original) Оригинал (Отдельно в папке)|
Аудио 6: английский / AC3 / 2.0 / 48 kHz / 224 kbps / 16 bit |(Commentary) Комментарии 1 (Отдельно в папке)|
Аудио 7: английский / AC3 / 2.0 / 48 kHz / 224 kbps / 16 bit |(Commentary) Комментарии 2 (Отдельно в папке)|
Навигация по главам: есть

ОтчетМедиаИнфо

General
Unique ID : 218433627241891113227592452271274692718 (0xA454C94EAAFF343D8E5FA282DCFF906E)
Format : Matroska
Format version : Version 4 / Version 2
File size : 3.94 GiB
Duration : 2h 7mn
Overall bit rate mode : Variable
Overall bit rate : 4 424 Kbps
Movie name : Tiberiumsun69
Encoded date : UTC 2016-04-02 08:49:04
Writing application : mkvmerge v8.3.0 ('Over the Horizon') 64bit
Writing library : libebml v1.3.1 + libmatroska v1.4.2
DURATION : 02:03:25.731000000
NUMBER_OF_FRAMES : 150
NUMBER_OF_BYTES : 1493
_STATISTICS_WRITING_APP : mkvmerge v8.3.0 ('Over the Horizon') 64bit
_STATISTICS_WRITING_DATE_UTC : 2016-04-02 08:49:04
_STATISTICS_TAGS : BPS DURATION NUMBER_OF_FRAMES NUMBER_OF_BYTES
Attachment : Yes
Video
ID : 1
Format : AVC
Format/Info : Advanced Video Codec
Format profile : High@L4.1
Format settings, CABAC : Yes
Format settings, ReFrames : 3 frames
Codec ID : V_MPEG4/ISO/AVC
Duration : 2h 7mn
Bit rate mode : Variable
Bit rate : 3 696 Kbps
Maximum bit rate : 4 000 Kbps
Width : 1 024 pixels
Height : 432 pixels
Display aspect ratio : 2.35:1
Frame rate : 60.000 fps
Standard : NTSC
Color space : YUV
Chroma subsampling : 4:2:0
Bit depth : 8 bits
Scan type : Progressive
Bits/(Pixel*Frame) : 0.139
Stream size : 3.29 GiB (84%)
Title : Tiberiumsun69
Language : English
Default : Yes
Forced : No
Color primaries : BT.601-6 525, BT.1358 525, BT.1700 NTSC, SMPTE 170M
Transfer characteristics : BT.601-6 525, BT.601-6 625, BT.1358 525, BT.1358 625, BT.1700 NTSC, SMPTE 170M
Matrix coefficients : BT.601-6 525, BT.1358 525, BT.1700 NTSC, SMPTE 170M
Audio
ID : 2
Format : AC-3
Format/Info : Audio Coding 3
Mode extension : CM (complete main)
Codec ID : A_AC3
Duration : 2h 7mn
Bit rate mode : Constant
Bit rate : 640 Kbps
Channel(s) : 6 channels
Channel positions : Front: L C R, Side: L R, LFE
Sampling rate : 48.0 KHz
Bit depth : 16 bits
Compression mode : Lossy
Stream size : 583 MiB (14%)
Title : Дубляж Blu-ray CEE
Language : Russian
Default : Yes
Forced : No
Text #1
ID : 3
Format : UTF-8
Codec ID : S_TEXT/UTF8
Codec ID/Info : UTF-8 Plain Text
Title : Полные Blu-ray CEE
Language : Russian
Default : No
Forced : No
Text #2
ID : 4
Format : UTF-8
Codec ID : S_TEXT/UTF8
Codec ID/Info : UTF-8 Plain Text
Title : Полные Tycoon
Language : Russian
Default : No
Forced : No
Text #3
ID : 5
Format : UTF-8
Codec ID : S_TEXT/UTF8
Codec ID/Info : UTF-8 Plain Text
Title : Комментарии 1
Language : Russian
Default : No
Forced : No
Text #4
ID : 6
Format : UTF-8
Codec ID : S_TEXT/UTF8
Codec ID/Info : UTF-8 Plain Text
Title : Комментарии 2
Language : Russian
Default : No
Forced : No
Text #5
ID : 7
Format : UTF-8
Codec ID : S_TEXT/UTF8
Codec ID/Info : UTF-8 Plain Text
Title : Полные
Language : English
Default : No
Forced : No
Text #6
ID : 8
Format : UTF-8
Codec ID : S_TEXT/UTF8
Codec ID/Info : UTF-8 Plain Text
Title : Комментарии 1
Language : English
Default : No
Forced : No
Text #7
ID : 9
Format : UTF-8
Codec ID : S_TEXT/UTF8
Codec ID/Info : UTF-8 Plain Text
Title : Комментарии 2
Language : English
Default : No
Forced : No
Menu
00:00:00.000 : en:Opening Logos
00:00:21.104 : en:The Empire Strikes Back
00:01:54.865 : en:Ice Planet Hoth
00:04:15.839 : en:The Rebel Base
00:08:19.249 : en:Escape From the Wampa
00:10:15.949 : en:Closing the Doors
00:12:57.735 : en:Obi-Wan's Instructions
00:15:13.538 : en:Search Party
00:16:29.697 : en:Luke's Recovery
00:18:19.974 : en:Imperial Probe Droid
00:19:45.393 : en:The Imperial Fleet
00:21:22.698 : en:Preparing for Battle
00:23:57.728 : en:First Transport Away
00:25:49.423 : en:Battle in the Snow
00:29:29.351 : en:The Tide Turns
00:31:29.221 : en:Rebels in Retreat
00:33:37.682 : en:Escape Aboard the Falcon
00:35:55.153 : en:Leaving for Dagobah
00:36:51.251 : en:The Empire in Pursuit
00:38:33.561 : en:Asteroid Field
00:40:36.726 : en:Crash Landing on Dagobah
00:44:20.074 : en:Hunting the Falcon
00:46:08.391 : en:"Found Someone, You Have"
00:50:13.385 : en:Interrupted Kiss
00:52:16.633 : en:The Emperor's Message
00:54:20.257 : en:Yoda's Hut
00:57:40.290 : en:"This is No Cave"
01:00:57.946 : en:Jedi Training
01:03:42.777 : en:Failure at the Cave
01:05:46.109 : en:Bounty Hunters
01:08:12.171 : en:There is No Try
01:13:24.233 : en:Out With the Garbage
01:16:39.887 : en:Seeing the Future
01:18:24.116 : en:City in the Clouds
01:19:45.864 : en:Meeting Lando
01:22:55.929 : en:Leaving Dagobah
01:25:38.550 : en:Leia's Concerns
01:27:51.266 : en:Imperial Surprise
01:30:28.673 : en:The Deal Gets Worse
01:34:39.799 : en:Carbon Freeze
01:38:28.903 : en:Luke Enters the Trap
01:40:26.145 : en:Confronting the Dark Lord
01:41:46.100 : en:Lando's Second Surprise
01:43:51.434 : en:Lightsaber Duel
01:47:02.541 : en:Escape From Cloud City
01:49:21.472 : en:Vader's Revelation
01:53:41.690 : en:Falcon to the Rescue
01:56:14.843 : en:The Empire Closes In
01:59:46.596 : en:The Rebel Fleet
02:01:58.228 : en:End Credits

Звёздные войны: Эпизод 6 – Возвращение Джедая

Название: Звёздные войны: Эпизод 6 – Возвращение
Оригинальное название: Star Wars: Episode VI - Return of the Jedi
Год выпуска: 1983
Страна: США
Жанр: фантастика, фэнтези, боевик, приключения
Продолжительность: 02:14:47
Перевод: Dub, DVO, AVO, Original
Субтитры: русские (Форсированные), русские (Полные Blu-ray CEE), русские (Полные Tycoon), русские (Комментарии 1), русские (Комментарии 2), английские (Полные), английские (Комментарии 1), английские (Комментарии 2)
Режиссер: Ричард Маркуэнд
В ролях: Марк Хэмилл (Luke Skywalker), Харрисон Форд (Han Solo), Кэрри Фишер (Princess Leia), Билли Ди Уильямс (Lando Calrissian), Энтони Дэниелс (C-3PO), Питер Мейхью (Chewbacca), Себастьян Шоу (Anakin Skywalker), Иен МакДермид (The Emperor), Фрэнк Оз (Yoda, озвучка), Джеймс Эрл Джонс (Darth Vader, озвучка), Дэвид Праус (Darth Vader), Алек Гиннесс (Ben «Obi-Wan» Kenobi)
Описание:
В заключительном шестом эпизоде «Звездных войн» Дарт Вейдер создает вторую «Звезду Смерти». Он объединяет все силы зла, чтобы с помощью этого смертоносного оружия нанести последний сокрушительный удар по повстанцам и их союзникам.
Люк Скайуокер вместе с принцессой Лейей и верными дроидами R2D2 и C-3PO отправляется спасать своего друга Хана Соло, который попал в плен к отвратительному Джаббе Хатту - могущественному повелителю преступников.
Повстанцы высаживаются на планету Эндор, чтобы оттуда вместе с Люком и его отрядом предпринять последнюю атаку на Имперский флот, атаку, от которой зависит судьба Галактики. В этом эпизоде Люк Скайуокер и Дарт Вейдер встречаются в последний раз... ибо из поединка между отцом и сыном живым выйдет только один...
Рейтинг:

MPAA: PG - Рекомендуется присутствие родителей
Качество: BDRip-AVC 60fps
Формат: MKV
Видео: AVC, 1024x432 (2.35:1), 3460 kbps, 60 fps, 0,130 bpp
Аудио 1: русский / AC3 / 5.1 / 48 kHz / 640 kbps / 16 bit
Аудио 2: русский / AC3 / 5.1 / 48 kHz / 640 kbps / 16 bit |(DVO) Tycoon-Studio (Отдельно в папке)|
Аудио 3: русский / AC3 / 5.1 / 48 kHz / 640 kbps / 16 bit |(AVO) А.Гаврилов (Отдельно в папке)|
Аудио 4: русский / AC3 / 5.1 / 48 kHz / 640 kbps / 16 bit |(AVO) Ю.Живов (Отдельно в папке)|
Аудио 5: английский / AC3 / 5.1 / 48 kHz / 640 kbps / 16 bit |(Original) Оригинал (Отдельно в папке)|
Аудио 6: английский / AC3 / 2.0 / 48 kHz / 224 kbps / 16 bit |(Commentary) Комментарии 1 (Отдельно в папке)|
Аудио 7: английский / AC3 / 2.0 / 48 kHz / 224 kbps / 16 bit |(Commentary) Комментарии 2 (Отдельно в папке)|
Навигация по главам: есть

ОтчетМедиаИнфо

General
Unique ID : 247083564226744761798303652976400297132 (0xB9E290424220167DB08DCD203CAC6CAC)
Format : Matroska
Format version : Version 4 / Version 2
File size : 3.94 GiB
Duration : 2h 14mn
Overall bit rate mode : Variable
Overall bit rate : 4 184 Kbps
Movie name : Tiberiumsun69
Encoded date : UTC 2016-04-02 09:32:26
Writing application : mkvmerge v8.3.0 ('Over the Horizon') 64bit
Writing library : libebml v1.3.1 + libmatroska v1.4.2
DURATION : 02:08:43.340000000
NUMBER_OF_FRAMES : 145
NUMBER_OF_BYTES : 2181
_STATISTICS_WRITING_APP : mkvmerge v8.3.0 ('Over the Horizon') 64bit
_STATISTICS_WRITING_DATE_UTC : 2016-04-02 09:32:26
_STATISTICS_TAGS : BPS DURATION NUMBER_OF_FRAMES NUMBER_OF_BYTES
Attachment : Yes
Video
ID : 1
Format : AVC
Format/Info : Advanced Video Codec
Format profile : High@L4.1
Format settings, CABAC : Yes
Format settings, ReFrames : 3 frames
Format settings, GOP : M=3, N=60
Codec ID : V_MPEG4/ISO/AVC
Duration : 2h 14mn
Bit rate mode : Variable
Bit rate : 3 461 Kbps
Maximum bit rate : 4 000 Kbps
Width : 1 024 pixels
Height : 432 pixels
Display aspect ratio : 2.35:1
Frame rate : 60.000 fps
Standard : NTSC
Color space : YUV
Chroma subsampling : 4:2:0
Bit depth : 8 bits
Scan type : Progressive
Bits/(Pixel*Frame) : 0.130
Stream size : 3.26 GiB (83%)
Title : Tiberiumsun69
Language : English
Default : Yes
Forced : No
Color primaries : BT.601-6 525, BT.1358 525, BT.1700 NTSC, SMPTE 170M
Transfer characteristics : BT.601-6 525, BT.601-6 625, BT.1358 525, BT.1358 625, BT.1700 NTSC, SMPTE 170M
Matrix coefficients : BT.601-6 525, BT.1358 525, BT.1700 NTSC, SMPTE 170M
Audio
ID : 2
Format : AC-3
Format/Info : Audio Coding 3
Mode extension : CM (complete main)
Codec ID : A_AC3
Duration : 2h 14mn
Bit rate mode : Constant
Bit rate : 640 Kbps
Channel(s) : 6 channels
Channel positions : Front: L C R, Side: L R, LFE
Sampling rate : 48.0 KHz
Bit depth : 16 bits
Compression mode : Lossy
Stream size : 617 MiB (15%)
Title : Дубляж Blu-ray CEE
Language : Russian
Default : Yes
Forced : No
Text #1
ID : 3
Format : UTF-8
Codec ID : S_TEXT/UTF8
Codec ID/Info : UTF-8 Plain Text
Title : Форсированные
Language : Russian
Default : Yes
Forced : No
Text #2
ID : 4
Format : UTF-8
Codec ID : S_TEXT/UTF8
Codec ID/Info : UTF-8 Plain Text
Title : Полные Blu-ray CEE
Language : Russian
Default : No
Forced : No
Text #3
ID : 5
Format : UTF-8
Codec ID : S_TEXT/UTF8
Codec ID/Info : UTF-8 Plain Text
Title : Полные Tycoon
Language : Russian
Default : No
Forced : No
Text #4
ID : 6
Format : UTF-8
Codec ID : S_TEXT/UTF8
Codec ID/Info : UTF-8 Plain Text
Title : Комментарии 1
Language : Russian
Default : No
Forced : No
Text #5
ID : 7
Format : UTF-8
Codec ID : S_TEXT/UTF8
Codec ID/Info : UTF-8 Plain Text
Title : Комментарии 2
Language : Russian
Default : No
Forced : No
Text #6
ID : 8
Format : UTF-8
Codec ID : S_TEXT/UTF8
Codec ID/Info : UTF-8 Plain Text
Title : Полные
Language : English
Default : No
Forced : No
Text #7
ID : 9
Format : UTF-8
Codec ID : S_TEXT/UTF8
Codec ID/Info : UTF-8 Plain Text
Title : Комментарии 1
Language : English
Default : No
Forced : No
Text #8
ID : 10
Format : UTF-8
Codec ID : S_TEXT/UTF8
Codec ID/Info : UTF-8 Plain Text
Title : Комментарии 2
Language : English
Default : No
Forced : No
Menu
00:00:00.000 : en:Opening Logos
00:00:21.188 : en:Return of the Jedi
00:01:55.115 : en:Vader's Unexpected Visit
00:04:58.465 : en:Arrival at Jabba's Palace
00:08:10.907 : en:A Message and a Gift
00:12:21.908 : en:The Max Rebo Band
00:14:22.028 : en:The Price for Chewbacca
00:17:36.013 : en:Free From the Carbonite
00:22:10.037 : en:Enter the Jedi
00:25:08.340 : en:"Oh No! The Rancor!"
00:29:37.359 : en:On the Sail Barge
00:31:29.012 : en:The Sarlacc Pit
00:37:44.471 : en:The Emperor Arrives
00:39:32.245 : en:Yoda's Twilight
00:45:17.423 : en:A Certain Point of View
00:48:23.400 : en:Rebel Briefing
00:51:36.010 : en:Lending the Falcon
00:53:32.668 : en:The Emperor's Instructions
00:54:25.095 : en:Flying Casual
00:56:55.245 : en:Arrival on Endor
00:58:43.812 : en:Speeder Bike Chase
01:02:41.716 : en:Leia Meets Wicket
01:06:19.267 : en:Vader's Report
01:07:47.480 : en:An Ewok Trap
01:12:01.108 : en:The Golden God
01:15:52.673 : en:Campfire Stories
01:18:14.815 : en:Brother and Sister
01:22:30.404 : en:Luke Surrenders
01:26:06.870 : en:Rebel Recon
01:26:52.082 : en:The Alliance Fleet
01:27:50.891 : en:Back Door
01:30:04.524 : en:Luke and the Emperor
01:33:19.135 : en:"It's a Trap!"
01:36:41.421 : en:Ewok Attack
01:40:25.186 : en:Fully Operational
01:42:23.179 : en:The Battle Rages
01:44:27.803 : en:The Dark Side Beckons
01:45:26.946 : en:The Ewoks Turn the Tide
01:48:42.433 : en:Father Vs. Son
01:50:40.634 : en:Taking the Bunker
01:51:37.107 : en:A Jedi's Fury
01:54:37.120 : en:The Shield Is Down
01:55:07.859 : en:Force Lightning
01:55:57.492 : en:Vader's Redemption
01:57:40.178 : en:Into the Death Star
01:59:34.167 : en:Anakin Unmasked
02:01:58.853 : en:Death Star Destroyed
02:04:50.566 : en:Funeral Pyre
02:05:27.437 : en:Celebration
02:07:56.043 : en:End Credits

Звёздные войны: Пробуждение силы

Название: Звёздные войны: Пробуждение силы
Оригинальное название: Star Wars: Episode VII - The Force Awakens
Год выпуска: 2015
Страна: США
Жанр: фантастика, фэнтези, боевик, приключения
Продолжительность: 02:18:06
Перевод: Dub - [iTunes], Original
Субтитры: русские (Форсированные), русские (Полные), английские (Полные), английские (Полные SDH)
Режиссер: Джей Джей Абрамс
В ролях: Джон Бойега (Finn), Дэйзи Ридли (Rey), Оскар Айзек (Poe Dameron), Адам Драйвер (Kylo Ren), Донал Глисон (General Hux), Харрисон Форд (Han Solo), Марк Хэмилл (Luke Skywalker), Кэрри Фишер (Princess Leia), Макс фон Сюдов (Lor San Tekka), Энди Серкис (Supreme Leader Snoke), Лупита Нионго (Maz Kanata), Энтони Дэниелс (C-3PO)
Описание:
Через тридцать лет после гибели Дарта Вейдера и Императора галактика по-прежнему в опасности. Государственное образование Первый Орден во главе с таинственным верховным лидером Сноуком и его правой рукой Кайло Реном идёт по стопам Империи, пытаясь захватить всю власть. В это нелёгкое время судьба сводит юную девушку Рей и бывшего штурмовика Первого Ордена Финна с героями войны с Империей - Ханом Соло, Чубаккой и генералом Леей. Вместе они должны дать бой Первому Ордену, однако настаёт тот момент, когда становится очевидно, что лишь джедаи могут остановить Сноука и Кайло Рена.
Рейтинг:

MPAA: PG-13 - Детям до 13 лет просмотр не желателен
Качество: BDRip-AVC 60fps
Формат: MKV
Видео: AVC, 1024x424 (2.40:1), 3387 kbps, 60 fps, 0,130 bpp
Аудио 1: русский / AC3 / 5.1 / 48 kHz / 384 kbps / 16 bit
Аудио 2: английский / AC3 / 5.1 / 48 kHz / 640 kbps / 16 bit |(Original) Оригинал (Отдельно в папке)|
Навигация по главам: есть

ОтчетМедиаИнфо

General
Unique ID : 238814248783837135554132447861662863415 (0xB3A9F3879ACD8BD589BCA5948374D037)
Format : Matroska
Format version : Version 4 / Version 2
File size : 3.71 GiB
Duration : 2h 18mn
Overall bit rate mode : Variable
Overall bit rate : 3 848 Kbps
Movie name : Tiberiumsun69
Encoded date : UTC 2016-04-03 03:36:56
Writing application : mkvmerge v8.3.0 ('Over the Horizon') 64bit
Writing library : libebml v1.3.1 + libmatroska v1.4.2
DURATION : 00:01:06.809000000
NUMBER_OF_FRAMES : 13
NUMBER_OF_BYTES : 1051
_STATISTICS_WRITING_APP : mkvmerge v8.3.0 ('Over the Horizon') 64bit
_STATISTICS_WRITING_DATE_UTC : 2016-04-03 03:36:56
_STATISTICS_TAGS : BPS DURATION NUMBER_OF_FRAMES NUMBER_OF_BYTES
Attachment : Yes
Video
ID : 1
Format : AVC
Format/Info : Advanced Video Codec
Format profile : High@L4.1
Format settings, CABAC : Yes
Format settings, ReFrames : 3 frames
Format settings, GOP : M=3, N=60
Codec ID : V_MPEG4/ISO/AVC
Duration : 2h 18mn
Bit rate mode : Variable
Bit rate : 3 387 Kbps
Maximum bit rate : 4 000 Kbps
Width : 1 024 pixels
Height : 424 pixels
Display aspect ratio : 2.40:1
Frame rate : 60.000 fps
Standard : NTSC
Color space : YUV
Chroma subsampling : 4:2:0
Bit depth : 8 bits
Scan type : Progressive
Bits/(Pixel*Frame) : 0.130
Stream size : 3.27 GiB (88%)
Title : Tiberiumsun69
Language : English
Default : Yes
Forced : No
Color primaries : BT.601-6 525, BT.1358 525, BT.1700 NTSC, SMPTE 170M
Transfer characteristics : BT.601-6 525, BT.601-6 625, BT.1358 525, BT.1358 625, BT.1700 NTSC, SMPTE 170M
Matrix coefficients : BT.601-6 525, BT.1358 525, BT.1700 NTSC, SMPTE 170M
Audio
ID : 2
Format : AC-3
Format/Info : Audio Coding 3
Mode extension : CM (complete main)
Codec ID : A_AC3
Duration : 2h 18mn
Bit rate mode : Constant
Bit rate : 384 Kbps
Channel(s) : 6 channels
Channel positions : Front: L C R, Side: L R, LFE
Sampling rate : 48.0 KHz
Bit depth : 16 bits
Compression mode : Lossy
Stream size : 379 MiB (10%)
Language : Russian
Default : Yes
Forced : No
Text #1
ID : 3
Format : UTF-8
Codec ID : S_TEXT/UTF8
Codec ID/Info : UTF-8 Plain Text
Title : Форсированные
Language : Russian
Default : Yes
Forced : No
Text #2
ID : 4
Format : UTF-8
Codec ID : S_TEXT/UTF8
Codec ID/Info : UTF-8 Plain Text
Title : Полные
Language : Russian
Default : No
Forced : No
Text #3
ID : 5
Format : UTF-8
Codec ID : S_TEXT/UTF8
Codec ID/Info : UTF-8 Plain Text
Title : Полные
Language : English
Default : No
Forced : No
Text #4
ID : 6
Format : UTF-8
Codec ID : S_TEXT/UTF8
Codec ID/Info : UTF-8 Plain Text
Title : Полные SDH
Language : English
Default : No
Forced : No
Menu
00:00:00.000 : en:Chapter 01
00:00:09.259 : en:Chapter 02
00:01:43.061 : en:Chapter 03
00:03:51.856 : en:Chapter 04
00:06:12.288 : en:Chapter 05
00:09:33.948 : en:Chapter 06
00:10:43.559 : en:Chapter 07
00:12:35.713 : en:Chapter 08
00:13:39.693 : en:Chapter 09
00:14:48.220 : en:Chapter 10
00:16:45.921 : en:Chapter 11
00:18:04.583 : en:Chapter 12
00:19:21.535 : en:Chapter 13
00:21:26.618 : en:Chapter 14
00:24:03.650 : en:Chapter 15
00:26:47.022 : en:Chapter 16
00:29:54.667 : en:Chapter 17
00:31:49.324 : en:Chapter 18
00:35:51.774 : en:Chapter 19
00:36:40.615 : en:Chapter 20
00:37:45.513 : en:Chapter 21
00:40:19.250 : en:Chapter 22
00:43:39.199 : en:Chapter 23
00:45:29.560 : en:Chapter 24
00:49:22.918 : en:Chapter 25
00:51:19.951 : en:Chapter 26
00:54:13.750 : en:Chapter 27
00:59:48.793 : en:Chapter 28
01:04:16.060 : en:Chapter 29
01:08:37.238 : en:Chapter 30
01:11:07.221 : en:Chapter 31
01:15:16.386 : en:Chapter 32
01:16:49.896 : en:Chapter 33
01:19:37.522 : en:Chapter 34
01:20:56.893 : en:Chapter 35
01:25:36.172 : en:Chapter 36
01:32:12.568 : en:Chapter 37
01:35:29.014 : en:Chapter 38
01:36:34.955 : en:Chapter 39
01:39:28.629 : en:Chapter 40
01:41:29.958 : en:Chapter 41
01:42:57.504 : en:Chapter 42
01:45:00.002 : en:Chapter 43
01:50:33.710 : en:Chapter 44
01:53:39.771 : en:Chapter 45
01:55:22.165 : en:Chapter 46
01:58:05.453 : en:Chapter 47
02:01:05.591 : en:Chapter 48
02:02:32.678 : en:Chapter 49
02:07:07.578 : en:Chapter 50
02:18:06.444 : en:Chapter 51

[Цитировать]



Показать сообщения:    

Текущее время: 10-Дек 21:32

Часовой пояс: UTC + 3


Вы не можете начинать темы
Вы не можете отвечать на сообщения
Вы не можете редактировать свои сообщения
Вы не можете удалять свои сообщения
Вы не можете голосовать в опросах
Вы не можете прикреплять файлы к сообщениям
Вы не можете скачивать файлы

!ВНИМАНИЕ!
Сайт не предоставляет электронные версии произведений, а занимается лишь коллекционированием и каталогизацией ссылок, присылаемых и публикуемых на форуме нашими читателями. Если вы являетесь правообладателем какого-либо представленного материала и не желаете, чтобы ссылка на него находилась в нашем каталоге, свяжитесь с нами, и мы незамедлительно удалим ее. Файлы для обмена на трекере предоставлены пользователями сайта, и администрация не несет ответственности за их содержание. Просьба не заливать файлы, защищенные авторскими правами, а также файлы нелегального содержания!