[ Сегодня идет свободное скачивание без начисления Download ]


Статистика раздачи
Нет
 
   
 
Top  
 
 
- Webflow | Официальный курс для начинающих по созданию сайтов в Webflow (2015) PCRec - Автор (режиссер): Jeff Blake
Жанр: Web, создание сайтов
Описание:
Реально простой в работе конструктор по созданию адаптивных сайтов. Это прорыв в веб-дизайне и именно Webflow является сейчас прямым конкурентом подобного конструктора сайтов Adobe Musе. Те, кто зарабатывает деньги при помощи веб-дизайна просто обязаны изучить новое течение в веб-разработке. Это перевод официального курса от самих создателей Webflow, так что качество и подача материала выше всех похвал.
Продолжительность: 04:15:23
Качество видео: PCRec
Видео: AVC/H.264, 1920x1080, ~246 - 453 Kbps
Аудио: AAC, 2 ch, 126 Kbps, VBR

Перечень уроков курса:

• Начало работы в Webflow
• Построение адаптивного веб-сайта в Webflow
• Видовые размеры в Webflow
• Выделение, перемещение и копирование контента
• Горячие клавиши
• Базовое структурирование страницы в Webflow
• Планировка адаптивных колонок
• Добавление текстовой информации
• Введение в стилизацию текста
• Добавление классов и стилей
• Создание вложенных классов
• Понятие CSS
• CSS на различных устройствах
• Настройки текста и каскадирование
• Добавление изображений
• Задний фон и заливка цветом
• Добавление белых границ и отступов
• Отображение блочных, строчных и строчно-блочных элементов
• Настройка ширины и высоты
• Floats и Clears - типы обтекания
• Виды позиционирования: относительный, абсолютный, фиксированный
• Продвинутое структурирование при помощи блочных элементов
• Стилизация кнопок
• Реагирование кнопок и элементов на положение курсора
• Настройка ссылок
• Добавление других страниц
• Добавление видео
• Добавление веб-шрифтов
• Построение формы
• Публикация или экспорт вашего сайта

Mediainfo:

Общее
Полное имя : C:\torrent\webflow\WEBFLOW 1 часть\01. Начало работы с WEBFLOW\01. Начало работы с WEBFLOW.mp4
Формат : MPEG-4
Профиль формата : Base Media / Version 2
Идентификатор кодека : mp42 (isom/mp42)
Размер файла : 21,7 Мбайт
Продолжительность : 7 м. 8 с.
Режим общего битрейта : Переменный
Общий поток : 425 Кбит/сек
Название фильма : 01. Начало работы с WEBFLOW (fin)
Дата кодирования : UTC 2015-05-28 07:36:13
Дата пометки : UTC 2015-05-28 07:36:13
Видео
Идентификатор : 1
Формат : AVC
Формат/Информация : Advanced Video Codec
Профиль формата : Baseline@L4
Параметр CABAC формата : Нет
Параметр ReFrames формата : 3 кадра
Идентификатор кодека : avc1
Идентификатор кодека/Информация : Advanced Video Coding
Продолжительность : 7 м. 8 с.
Битрейт : 296 Кбит/сек
Ширина : 1920 пикселей
Высота : 1080 пикселей
Соотношение сторон : 16:9
Режим частоты кадров : Постоянный
Частота кадров : 30,000 кадров/сек
Стандарт вещания : NTSC
Цветовое пространство : YUV
Субдискретизация насыщенности : 4:2:0
Битовая глубина : 8 бит
Тип развёртки : Прогрессивная
Бит/(Пиксели*Кадры) : 0.005
Размер потока : 15,1 Мбайт (70%)
Язык : English
Дата кодирования : UTC 2015-05-28 07:36:13
Дата пометки : UTC 2015-05-28 07:36:13
Цветовой диапазон : Limited
Аудио
Идентификатор : 2
Формат : AAC
Формат/Информация : Advanced Audio Codec
Профиль формата : LC
Идентификатор кодека : 40
Продолжительность : 7 м. 8 с.
Вид битрейта : Переменный
Битрейт : 126 Кбит/сек
Максимальный битрейт : 449 Кбит/сек
Каналы : 2 канала
Расположение каналов : Front: L R
Частота : 44,1 КГц
Частота кадров : 43,066 кадра/сек (1024 spf)
Метод сжатия : С потерями
Размер потока : 6,41 Мбайт (30%)
Язык : English
Дата кодирования : UTC 2015-05-28 07:36:13
Дата пометки : UTC 2015-05-28 07:36:13
Общее
Полное имя : C:\torrent\webflow\WEBFLOW 1 часть\02. Создание веб-сайтов с отзывчивым дизайном в WEBFLOW\02. Создание веб-сайтов с отзывчивым дизайном в WEBFLOW.mp4
Формат : MPEG-4
Профиль формата : Base Media / Version 2
Идентификатор кодека : mp42 (isom/mp42)
Размер файла : 9,16 Мбайт
Продолжительность : 2 м. 12 с.
Режим общего битрейта : Переменный
Общий поток : 581 Кбит/сек
Название фильма : 02. Создание веб-сайтов с отзывчивым дизайном в WEBFLOW (fin)
Дата кодирования : UTC 2015-05-28 07:58:41
Дата пометки : UTC 2015-05-28 07:58:41
Видео
Идентификатор : 1
Формат : AVC
Формат/Информация : Advanced Video Codec
Профиль формата : Baseline@L4
Параметр CABAC формата : Нет
Параметр ReFrames формата : 3 кадра
Идентификатор кодека : avc1
Идентификатор кодека/Информация : Advanced Video Coding
Продолжительность : 2 м. 12 с.
Битрейт : 453 Кбит/сек
Ширина : 1920 пикселей
Высота : 1080 пикселей
Соотношение сторон : 16:9
Режим частоты кадров : Постоянный
Частота кадров : 30,000 кадров/сек
Стандарт вещания : NTSC
Цветовое пространство : YUV
Субдискретизация насыщенности : 4:2:0
Битовая глубина : 8 бит
Тип развёртки : Прогрессивная
Бит/(Пиксели*Кадры) : 0.007
Размер потока : 7,13 Мбайт (78%)
Язык : English
Дата кодирования : UTC 2015-05-28 07:58:42
Дата пометки : UTC 2015-05-28 07:58:42
Цветовой диапазон : Limited
Аудио
Идентификатор : 2
Формат : AAC
Формат/Информация : Advanced Audio Codec
Профиль формата : LC
Идентификатор кодека : 40
Продолжительность : 2 м. 12 с.
Вид битрейта : Переменный
Битрейт : 126 Кбит/сек
Максимальный битрейт : 465 Кбит/сек
Каналы : 2 канала
Расположение каналов : Front: L R
Частота : 44,1 КГц
Частота кадров : 43,066 кадра/сек (1024 spf)
Метод сжатия : С потерями
Размер потока : 1,98 Мбайт (22%)
Язык : English
Дата кодирования : UTC 2015-05-28 07:58:42
Дата пометки : UTC 2015-05-28 07:58:42
Общее
Полное имя : C:\torrent\webflow\WEBFLOW 1 часть\03. Видовые режимы\03. Видовые режимы.mp4
Формат : MPEG-4
Профиль формата : Base Media / Version 2
Идентификатор кодека : mp42 (isom/mp42)
Размер файла : 25,5 Мбайт
Продолжительность : 8 м. 39 с.
Режим общего битрейта : Переменный
Общий поток : 413 Кбит/сек
Название фильма : 03. Видовые режимы (fin)
Дата кодирования : UTC 2015-05-28 08:04:53
Дата пометки : UTC 2015-05-28 08:04:53
Видео
Идентификатор : 1
Формат : AVC
Формат/Информация : Advanced Video Codec
Профиль формата : Baseline@L4
Параметр CABAC формата : Нет
Параметр ReFrames формата : 3 кадра
Идентификатор кодека : avc1
Идентификатор кодека/Информация : Advanced Video Coding
Продолжительность : 8 м. 39 с.
Битрейт : 284 Кбит/сек
Ширина : 1920 пикселей
Высота : 1080 пикселей
Соотношение сторон : 16:9
Режим частоты кадров : Постоянный
Частота кадров : 30,000 кадров/сек
Стандарт вещания : NTSC
Цветовое пространство : YUV
Субдискретизация насыщенности : 4:2:0
Битовая глубина : 8 бит
Тип развёртки : Прогрессивная
Бит/(Пиксели*Кадры) : 0.005
Размер потока : 17,6 Мбайт (69%)
Язык : English
Дата кодирования : UTC 2015-05-28 08:04:53
Дата пометки : UTC 2015-05-28 08:04:53
Цветовой диапазон : Limited
Аудио
Идентификатор : 2
Формат : AAC
Формат/Информация : Advanced Audio Codec
Профиль формата : LC
Идентификатор кодека : 40
Продолжительность : 8 м. 39 с.
Вид битрейта : Переменный
Битрейт : 126 Кбит/сек
Максимальный битрейт : 439 Кбит/сек
Каналы : 2 канала
Расположение каналов : Front: L R
Частота : 44,1 КГц
Частота кадров : 43,066 кадра/сек (1024 spf)
Метод сжатия : С потерями
Размер потока : 7,78 Мбайт (30%)
Язык : English
Дата кодирования : UTC 2015-05-28 08:04:53
Дата пометки : UTC 2015-05-28 08:04:53
Скриншоты:

[Цитировать]



Показать сообщения:    

Текущее время: 08-Дек 03:14

Часовой пояс: UTC + 3


Вы не можете начинать темы
Вы не можете отвечать на сообщения
Вы не можете редактировать свои сообщения
Вы не можете удалять свои сообщения
Вы не можете голосовать в опросах
Вы не можете прикреплять файлы к сообщениям
Вы не можете скачивать файлы

!ВНИМАНИЕ!
Сайт не предоставляет электронные версии произведений, а занимается лишь коллекционированием и каталогизацией ссылок, присылаемых и публикуемых на форуме нашими читателями. Если вы являетесь правообладателем какого-либо представленного материала и не желаете, чтобы ссылка на него находилась в нашем каталоге, свяжитесь с нами, и мы незамедлительно удалим ее. Файлы для обмена на трекере предоставлены пользователями сайта, и администрация не несет ответственности за их содержание. Просьба не заливать файлы, защищенные авторскими правами, а также файлы нелегального содержания!