[ Today is free to download without increasing Download ]

DL-List and Torrent activity
Пятьдесят оттенков черного / Fifty Shades of Black «Если ты вляпался в черное, никогда не отмоешься до серого»Год выпуска: 2016
Страна: США
Производство: IM Global
Жанр: Комедия
Режиссёр: Майкл Тиддес
В ролях: Марлон Уайанс, Кали Хоук, Фред Уиллард, Майк Эппс, Эффион Крокетт, Джейн Сеймур, Флоренс Хендерсон, Эндрю Бэчелор, Дженни Зигрино, Кейт Лэнг Джонсон, Сидни Кастилло, Ирен Чои, Расселл Питерс, Д.С. Эрвин, Шонте Вайанс, Винсент Ошана, Ховард Алонсо, Брэд Шмидт, Джои Ромэйн, Дейв Шеридан
Перевод: Профессиональный (полное дублирование)[iTunes]
Субтитры: Отсутствуют
Описание: Неискушенная студентка колледжа знакомится с состоятельным бизнесменом, чьи сексуальные предпочтения омрачают их отношения. Дата премьеры (мир): 28 января 2016
Дата премьеры (РФ): 4 февраля 2016, «Парадиз»
Качество: HDRip
Продолжительность: 01:31:58
Формат: AVI
Видео кодек: XviD
Аудио кодек: МР3
Видео: 688x288 (2.40:1), 25 fps, XviD build 73 ~999 kbps avg, 0.210 bit/pixel
Аудио: 48 kHz, MPEG Layer 3, 2 ch, ~128.00 kbps avg


Format : AVI
Format/Info : Audio Video Interleave
File size : 745 MiB
Duration : 1h 31mn
Overall bit rate : 1 133 Kbps
ID : 0
Format : MPEG-4 Visual
Format profile : Advanced Simple@L5
Format settings, BVOP : 1
Format settings, QPel : No
Format settings, GMC : No warppoints
Format settings, Matrix : Custom
Codec ID : XVID
Codec ID/Hint : XviD
Duration : 1h 31mn
Bit rate : 999 Kbps
Width : 688 pixels
Height : 288 pixels
Display aspect ratio : 2.40:1
Frame rate : 23.976 fps
Color space : YUV
Chroma subsampling : 4:2:0
Bit depth : 8 bits
Scan type : Progressive
Compression mode : Lossy
Bits/(Pixel*Frame) : 0.210
Stream size : 657 MiB (88%)
Writing library : XviD 73
ID : 1
Format : MPEG Audio
Format version : Version 1
Format profile : Layer 3
Mode : Joint stereo
Mode extension : MS Stereo
Codec ID : 55
Codec ID/Hint : MP3
Duration : 1h 31mn
Bit rate mode : Constant
Bit rate : 128 Kbps
Channel(s) : 2 channels
Sampling rate : 48.0 KHz
Compression mode : Lossy
Stream size : 84.2 MiB (11%)
Alignment : Aligned on interleaves
Interleave, duration : 167 ms (4.00 video frames)
Interleave, preload duration : 216 ms
Title : iTunes
Writing library : LAME3.99r
Encoding settings : -m j -V 4 -q 2 -lowpass 17 -b 128



Display posts:    

Current time is: 25-Oct 20:23

All times are UTC + 3

You cannot post new topics in this forum
You cannot reply to topics in this forum
You cannot edit your posts in this forum
You cannot delete your posts in this forum
You cannot vote in polls in this forum
You cannot attach files in this forum
You cannot download files in this forum

The site does not give electronic versions of products, and is engaged only in a collecting and cataloguing of the references sent and published at a forum by our readers. If you are the legal owner of any submitted material and do not wish that the reference to it was in our catalogue, contact us and we shall immediately remove her. Files for an exchange on tracker are given by users of a site, and the administration does not bear the responsibility for their maintenance. The request to not fill in the files protected by copyrights, and also files of the illegal maintenance!