[ Сегодня идет свободное скачивание без начисления Download ]


Статистика раздачи
Нет
 
   
 
Top  
 
 
Новая земля / Nova zembla (2011) BDRip Информация о фильме
Название: Новая земля
Оригинальное название: Nova zembla
Год выхода: 2011
Жанр: Приключения, исторический, драма
Режиссер: Рейну Урлеманс / Reinout Oerlemans
В ролях: Даутцен Крёз, Дерек де Линт, Ян Деклер Сэмми Шилт, Виктор Рейнир, Тюн Куилбур, Бас Кейзер, Мэдс Уиттерманс, Иуда Гослинга
О фильме: В 1594—1597 годах Баренц совершил три экспедиции в Арктику для поиска Северо-Восточного прохода в Тихий океан, открыв и описав берега Новой Земли. Во время последнего плавания корабль Баренца затёрло во льдах, и команде пришлось остаться на зимовку в условиях полярной ночи на побережье архипелага. Многие члены команды, в их числе сам Баренц, не выдержали лишений арктической зимы и погибли. Об этом путешествии повествует дневник одного из членов команды — Херрита де Фейра. Дневники де Фейра сегодня воспринимаются как источник научного материала, а голландские дети изучают историю мореплавания Баренца по гравюрам из дневника моряка...

Страна: Нидерланды
Студия: Eyeworks, Inspire Pictures, Investment Fund Nova Zembla
Продолжительность: 01:49:06
Перевод: Профессиональный (двухголосый, закадровый) - НТВ+
Файл
Формат: avi
Качество: BDRip (BDRemux)
Видео: XviD, 656x272, 23.976fps, 817kbps
Аудио: MPEG Layer 3, 2ch, 48000Hz, 128kbps

MediaInfo

General
Complete name : Novaa.Zemla.2011.P2.BDRip.700.CurHaJI.avi
Format : AVI
Format/Info : Audio Video Interleave
File size : 745 MiB
Duration : 1h 49mn
Overall bit rate : 954 Kbps
Movie name : Novaa.Zemla.2011.P2.BDRip.700.CurHaJI
Writing library : VirtualDub build 35491/release
Video
ID : 0
Format : MPEG-4 Visual
Format profile : Advanced Simple@L5
Format settings, BVOP : 1
Format settings, QPel : No
Format settings, GMC : No warppoints
Format settings, Matrix : Custom
Codec ID : XVID
Codec ID/Hint : XviD
Duration : 1h 49mn
Bit rate : 817 Kbps
Width : 656 pixels
Height : 272 pixels
Display aspect ratio : 2.40:1
Frame rate : 23.976 fps
Color space : YUV
Chroma subsampling : 4:2:0
Bit depth : 8 bits
Scan type : Progressive
Compression mode : Lossy
Bits/(Pixel*Frame) : 0.191
Stream size : 637 MiB (86%)
Writing library : XviD 73
Audio
ID : 1
Format : MPEG Audio
Format version : Version 1
Format profile : Layer 3
Codec ID : 55
Codec ID/Hint : MP3
Duration : 1h 49mn
Bit rate mode : Constant
Bit rate : 128 Kbps
Channel(s) : 2 channels
Sampling rate : 48.0 KHz
Compression mode : Lossy
Stream size : 99.9 MiB (13%)
Alignment : Split accross interleaves
Interleave, duration : 42 ms (1.00 video frame)
Interleave, preload duration : 500 ms
Writing library : LAME3.99r
Encoding settings : -m s -V 4 -q 2 -lowpass 17 -b 128

Скриншоты

[Цитировать]



Показать сообщения:    

Текущее время: 08-Дек 12:50

Часовой пояс: UTC + 3


Вы не можете начинать темы
Вы не можете отвечать на сообщения
Вы не можете редактировать свои сообщения
Вы не можете удалять свои сообщения
Вы не можете голосовать в опросах
Вы не можете прикреплять файлы к сообщениям
Вы не можете скачивать файлы

!ВНИМАНИЕ!
Сайт не предоставляет электронные версии произведений, а занимается лишь коллекционированием и каталогизацией ссылок, присылаемых и публикуемых на форуме нашими читателями. Если вы являетесь правообладателем какого-либо представленного материала и не желаете, чтобы ссылка на него находилась в нашем каталоге, свяжитесь с нами, и мы незамедлительно удалим ее. Файлы для обмена на трекере предоставлены пользователями сайта, и администрация не несет ответственности за их содержание. Просьба не заливать файлы, защищенные авторскими правами, а также файлы нелегального содержания!