[ Сегодня идет свободное скачивание без начисления Download ]


Статистика раздачи
Нет
 
   
 
Top  
 
 
Студия 54 / Studio 54 (1998) BDRip 1080p Информация о фильме
Название: Студия 54
Оригинальное название: 54 (Studio 54)
Год выпуска: 1998
Жанр: Драма
Выпущено: США, Dollface, FilmColony, Miramax Films, Redeemable Features
Режиссер: Марк Кристофер
В ролях: Райан Филипп, Сальма Хайек, Нив Кэмпбелл, Майк Майерс, Села Уорд, Брекин Мейер, Шерри Стрингфилд, Эллен Альбертини Дау, Камерон Мэттисон, Ноам Дженкинс, Фредерик Ван Дер Вал, Лорен Хаттон
О фильме: «Студия 54» была самым популярным клубом Нью-Йорка. Случайно попасть туда было невозможно. Но оказавшись однажды, ты хотел остаться навсегда. Это история о знаменитом вертепе и его людях. О простом парне, чудом оказавшемся здесь. О наркотиках и беспорядочном сексе. О попытках заставить мечты сбыться любой ценой. Об оборотной стороне славы. О любви и разочарованиях. А также о последствиях всего этого.

Файл
Качество: BDRip (1080p)
Видео: MPEG-4 AVC, 11050 Кбит/с, 1920x1040, 23.976 кадр/c
Аудио: Русский (AC3, 1 ch, 224 Кбит/с), (AC3, 6 ch, 640 Кбит/с), (DTS, 6 ch, 1509 Кбит/с), английский (DTS, 6 ch, 1509 Кбит/с)
Размер: 10.45 ГБ
Продолжительность: 01:40:13
Перевод: Профессиональный многоголосый
Субтитры: Русские, английские
За исходник, большое спасибо nik385 & BLUEBIRD
За исходники русских аудио-дорожек - спасибо: Pyha, Bloodymetall, dsk71.
Сохранены оригинальные чаптеры как на Blu-Ray.
-------------------------------------------------------------------------
Аудио #1: Русский (AC3, 6 ch, 640 Кбит/с) - Профессиональный многоголосый
Аудио #2: Русский (AC3, 1 ch, 224 Кбит/с) - Профессиональный многоголосый (РТР)
Аудио #3: Русский (DTS, 6 ch, 1509 Кбит/c) - Профессиональный многоголосый

x264

x264 [info]: frame I:797 Avg QP:14.36 size:217760
x264 [info]: frame P:35678 Avg QP:17.06 size:104665
x264 [info]: frame B:107691 Avg QP:18.59 size: 40822
x264 [info]: consecutive B-frames: 3.1% 5.4% 11.0% 25.9% 9.6% 41.3% 2.7% 0.4% 0.2% 0.2%
x264 [info]: mb I I16..4: 20.6% 59.2% 20.2%
x264 [info]: mb P I16..4: 3.8% 25.9% 2.2% P16..4: 26.1% 30.7% 5.9% 0.7% 0.0% skip: 4.7%
x264 [info]: mb B I16..4: 0.6% 1.9% 0.2% B16..8: 41.7% 19.2% 2.1% direct:12.8% skip:21.4% L0:42.5% L1:43.0% BI:14.6%
x264 [info]: 8x8 transform intra:77.6% inter:53.6%
x264 [info]: direct mvs spatial:99.6% temporal:0.4%
x264 [info]: coded y,uvDC,uvAC intra: 90.1% 82.6% 55.8% inter: 41.9% 44.5% 10.5%
x264 [info]: i16 v,h,dc,p: 15% 8% 28% 49%
x264 [info]: i8 v,h,dc,ddl,ddr,vr,hd,vl,hu: 9% 6% 10% 10% 13% 15% 12% 14% 12%
x264 [info]: i4 v,h,dc,ddl,ddr,vr,hd,vl,hu: 13% 7% 21% 7% 10% 12% 9% 10% 10%
x264 [info]: i8c dc,h,v,p: 38% 24% 21% 17%
x264 [info]: Weighted P-Frames: Y:5.7% UV:3.5%
x264 [info]: ref P L0: 54.1% 5.6% 24.8% 13.2% 2.2% 0.0%
x264 [info]: ref B L0: 85.9% 11.0% 3.1%
x264 [info]: ref B L1: 94.8% 5.2%
x264 [info]: kb/s:11048.13

Инфо-файл

Общее
Уникальный идентификатор : 227135369184517495573621044727879690727 (0xAAE0AE4F14EB449C989E5A640219E9E7)
Полное имя : D:ЗагрузкиStudio.54.1998.x264.BDRip.(1080p).ExKinoRay (1).mkv
Формат : Matroska
Версия формата : Version 2
Размер файла : 10,5 Гбайт
Продолжительность : 1 ч. 40 м.
Общий поток : 14,9 Мбит/сек
Название фильма : Студия 54.1998.Rip by: ollan
Дата кодирования : UTC 2016-04-09 15:11:41
Программа кодирования : mkvmerge v5.6.0 ('Kenya Kane') built on May 27 2012 16:44:04
Библиотека кодирования : libebml v1.2.3 + libmatroska v1.3.0
Attachements : Cover - Studio.54.png
Видео
Идентификатор : 1
Формат : AVC
Формат/Информация : Advanced Video Codec
Профиль формата : [email protected]
Параметр CABAC формата : Да
Параметр ReFrames формата : 4 кадра
Идентификатор кодека : V_MPEG4/ISO/AVC
Продолжительность : 1 ч. 40 м.
Битрейт : 11,1 Мбит/сек
Ширина : 1920 пикселей
Высота : 1040 пикселей
Соотношение сторон : 1,85:1
Режим частоты кадров : Постоянный
Частота кадров : 23,976 (24000/1001) кадра/сек
Цветовое пространство : YUV
Субдискретизация насыщенности : 4:2:0
Битовая глубина : 8 бит
Тип развёртки : Прогрессивная
Бит/(Пиксели*Кадры) : 0.231
Размер потока : 7,53 Гбайт (72%)
Библиотека кодирования : x264 core 146 r2538 121396c
Настройки программы : cabac=1 / ref=4 / deblock=1:-3:-3 / analyse=0x3:0x133 / me=umh / subme=11 / psy=1 / psy_rd=1.00:0.10 / mixed_ref=1 / me_range=48 / chroma_me=1 / trellis=2 / 8x8dct=1 / cqm=0 / deadzone=21,11 / fast_pskip=0 / chroma_qp_offset=-3 / threads=12 / lookahead_threads=2 / sliced_threads=0 / nr=0 / decimate=0 / interlaced=0 / bluray_compat=0 / constrained_intra=0 / bframes=9 / b_pyramid=2 / b_adapt=2 / b_bias=0 / direct=3 / weightb=1 / open_gop=0 / weightp=2 / keyint=240 / keyint_min=23 / scenecut=40 / intra_refresh=0 / rc_lookahead=40 / rc=2pass / mbtree=0 / bitrate=11050 / ratetol=1.0 / qcomp=0.60 / qpmin=0 / qpmax=69 / qpstep=4 / cplxblur=20.0 / qblur=0.5 / vbv_maxrate=50000 / vbv_bufsize=62500 / nal_hrd=none / filler=0 / ip_ratio=1.40 / pb_ratio=1.30 / aq=1:1.00
Язык : English
Default : Да
Forced : Нет
Аудио #1
Идентификатор : 2
Формат : AC-3
Формат/Информация : Audio Coding 3
Расширение режима : CM (complete main)
Параметр Endianness формата : Big
Идентификатор кодека : A_AC3
Продолжительность : 1 ч. 40 м.
Вид битрейта : Постоянный
Битрейт : 640 Кбит/сек
Каналы : 6 каналов
Расположение каналов : Front: L C R, Side: L R, LFE
Частота : 48,0 КГц
Частота кадров : 31,250 кадров/сек (1536 spf)
Метод сжатия : С потерями
Размер потока : 459 Мбайт (4%)
Заголовок : Профессиональный многоголосый
Язык : Russian
Default : Да
Forced : Нет
Аудио #2
Идентификатор : 3
Формат : AC-3
Формат/Информация : Audio Coding 3
Расширение режима : CM (complete main)
Параметр Endianness формата : Big
Идентификатор кодека : A_AC3
Продолжительность : 1 ч. 40 м.
Вид битрейта : Постоянный
Битрейт : 224 Кбит/сек
Каналы : 1 канал
Расположение каналов : Front: C
Частота : 48,0 КГц
Частота кадров : 31,250 кадров/сек (1536 spf)
Метод сжатия : С потерями
Размер потока : 161 Мбайт (1%)
Заголовок : Профессиональный многоголосый (РТР)
Язык : Russian
Default : Нет
Forced : Нет
Аудио #3
Идентификатор : 4
Формат : DTS
Формат/Информация : Digital Theater Systems
Режим : 16
Параметр Endianness формата : Big
Идентификатор кодека : A_DTS
Продолжительность : 1 ч. 40 м.
Вид битрейта : Постоянный
Битрейт : 1509 Кбит/сек
Каналы : 6 каналов
Расположение каналов : Front: L C R, Side: L R, LFE
Частота : 48,0 КГц
Частота кадров : 93,750 кадра/сек (512 spf)
Битовая глубина : 16 бит
Метод сжатия : С потерями
Размер потока : 1,06 Гбайт (10%)
Заголовок : Профессиональный многоголосый
Язык : Russian
Default : Нет
Forced : Нет
Аудио #4
Идентификатор : 5
Формат : DTS
Формат/Информация : Digital Theater Systems
Режим : 16
Параметр Endianness формата : Big
Идентификатор кодека : A_DTS
Продолжительность : 1 ч. 40 м.
Вид битрейта : Постоянный
Битрейт : 1509 Кбит/сек
Каналы : 6 каналов
Расположение каналов : Front: L C R, Side: L R, LFE
Частота : 48,0 КГц
Частота кадров : 93,750 кадра/сек (512 spf)
Битовая глубина : 16 бит
Метод сжатия : С потерями
Размер потока : 1,06 Гбайт (10%)
Язык : English
Default : Нет
Forced : Нет
Текст #1
Идентификатор : 6
Формат : UTF-8
Идентификатор кодека : S_TEXT/UTF8
Идентификатор кодека/Информация : UTF-8 Plain Text
Заголовок : Full
Язык : Russian
Default : Нет
Forced : Нет
Текст #2
Идентификатор : 7
Формат : UTF-8
Идентификатор кодека : S_TEXT/UTF8
Идентификатор кодека/Информация : UTF-8 Plain Text
Заголовок : Full
Язык : English
Default : Нет
Forced : Нет
Меню
00:00:00.000 : en:Chapter 01
00:03:12.942 : en:Chapter 02
00:07:21.023 : en:Chapter 03
00:13:49.411 : en:Chapter 04
00:21:15.399 : en:Chapter 05
00:28:12.690 : en:Chapter 06
00:36:36.194 : en:Chapter 07
00:44:49.687 : en:Chapter 08
00:50:03.625 : en:Chapter 09
00:56:47.779 : en:Chapter 10
01:03:12.288 : en:Chapter 11
01:08:15.800 : en:Chapter 12
01:11:16.855 : en:Chapter 13
01:16:34.673 : en:Chapter 14
01:21:27.716 : en:Chapter 15
01:27:05.762 : en:Chapter 16
01:40:12.923 : en:Chapter 17

Скриншоты



[Цитировать]



Показать сообщения:    

Текущее время: 06-Дек 03:53

Часовой пояс: UTC + 3


Вы не можете начинать темы
Вы не можете отвечать на сообщения
Вы не можете редактировать свои сообщения
Вы не можете удалять свои сообщения
Вы не можете голосовать в опросах
Вы не можете прикреплять файлы к сообщениям
Вы не можете скачивать файлы

!ВНИМАНИЕ!
Сайт не предоставляет электронные версии произведений, а занимается лишь коллекционированием и каталогизацией ссылок, присылаемых и публикуемых на форуме нашими читателями. Если вы являетесь правообладателем какого-либо представленного материала и не желаете, чтобы ссылка на него находилась в нашем каталоге, свяжитесь с нами, и мы незамедлительно удалим ее. Файлы для обмена на трекере предоставлены пользователями сайта, и администрация не несет ответственности за их содержание. Просьба не заливать файлы, защищенные авторскими правами, а также файлы нелегального содержания!