[ Сегодня идет свободное скачивание без начисления Download ]


Статистика раздачи
Нет
 
   
 
Top  
 
 
Пернатая банда / El Americano: The MovieГод выпуска: 2016
Страна: Мексика, США
Производство: Animex
Жанр: мультфильм, боевик, комедия, приключения, семейный
Режиссер: Рикардо Арнаиз, Майк Кункель, Рауль Гарсиа
В ролях (озвучивали): Эдвард Джеймс Олмос, Рико Родригес, Чич Марин, Кейт дель Кастильо, Алекс Синтек, Эрик Эстрада, Пьер Анджело, Дон Чето, Рикардо Санчес
Перевод: Профессиональный (полное дублирование) [Чистый звук]
Субтитры: нет
Описание: -...Как и все подростки, попугай Куко обожает находить занятия поинтереснее, чем помогать старшим в скучных домашних делах. Например, фанатеть от своего любимого телегероя, крутого супер-пернатого Эль Американо! Все меняется, когда банда птиц-раздолбаев грозится забрать у отца Куко цирковую арену, поколениями принадлежащей их семье. Куко решает, что без помощи Эль Американо ну никак не обойтись и он отправляется в полное опасностей путешествие в Голливуд, в конце пути открыв супергероя внутри себя самого...-

Примечание: Присутствует реклама.
Качество: WEBRip
Продолжительность: 01:28:04
Формат: AVI
Видео кодек: XviD
Аудио кодек: AC3
Видео: 720x400 (1.80:1), 50 fps, XviD build 50 ~1821 kbps avg, 0.13 bit/pixel
Аудио: 48 kHz, AC3 Dolby Digital, 2/0 (L,R) ch, ~384 kbps
премьера (мир): 22 января 2016
премьера (РФ): 25 февраля 2016, «Top Film Distribution»

MediaInfo

Общее
Полное имя : E:DownloadsПернатая банда.2O16.D.WEBRip.avi
Формат : AVI
Формат/Информация : Audio Video Interleave
Размер файла : 1,37 Гбайт
Продолжительность : 1 ч. 28 м.
Общий поток : 2224 Кбит/сек
Программа кодирования : VirtualDubMod 1.5.10.2 (build 2540/release)
Библиотека кодирования : VirtualDubMod build 2540/release
Видео
Идентификатор : 0
Формат : MPEG-4 Visual
Профиль формата : Advanced Simple@L5
Параметр BVOP формата : 2
Параметр QPel формата : Нет
Параметр GMC формата : Без точки перехода
Параметр матрицы формата : Default (MPEG)
Идентификатор кодека : XVID
Идентификатор кодека/Подсказка : XviD
Продолжительность : 1 ч. 28 м.
Битрейт : 1821 Кбит/сек
Ширина : 720 пикселей
Высота : 400 пикселей
Соотношение сторон : 16:9
Частота кадров : 50,000 кадров/сек
Частота кадров в оригинале : 25,000 кадров/сек
Цветовое пространство : YUV
Субдискретизация насыщенности : 4:2:0
Битовая глубина : 8 бит
Тип развёртки : Прогрессивная
Метод сжатия : С потерями
Бит/(Пиксели*Кадры) : 0.126
Размер потока : 1,12 Гбайт (82%)
Библиотека кодирования : XviD 1.2.1 (UTC 2008-12-04)
Аудио
Идентификатор : 1
Формат : AC-3
Формат/Информация : Audio Coding 3
Расширение режима : CM (complete main)
Параметр Endianness формата : Big
Идентификатор кодека : 2000
Продолжительность : 1 ч. 28 м.
Вид битрейта : Постоянный
Битрейт : 384 Кбит/сек
Каналы : 2 канала
Расположение каналов : Front: L R
Частота : 48,0 КГц
Метод сжатия : С потерями
Размер потока : 242 Мбайт (17%)
Выравнивание : Разделение по промежуткам
Продолжительность промежутка : 20 мс. (1,00 видеокадр)
Время предзагрузки промежутка : 500 мс.

Скриншоты

[Цитировать]



Показать сообщения:    

Текущее время: 08-Дек 10:57

Часовой пояс: UTC + 3


Вы не можете начинать темы
Вы не можете отвечать на сообщения
Вы не можете редактировать свои сообщения
Вы не можете удалять свои сообщения
Вы не можете голосовать в опросах
Вы не можете прикреплять файлы к сообщениям
Вы не можете скачивать файлы

!ВНИМАНИЕ!
Сайт не предоставляет электронные версии произведений, а занимается лишь коллекционированием и каталогизацией ссылок, присылаемых и публикуемых на форуме нашими читателями. Если вы являетесь правообладателем какого-либо представленного материала и не желаете, чтобы ссылка на него находилась в нашем каталоге, свяжитесь с нами, и мы незамедлительно удалим ее. Файлы для обмена на трекере предоставлены пользователями сайта, и администрация не несет ответственности за их содержание. Просьба не заливать файлы, защищенные авторскими правами, а также файлы нелегального содержания!