[ Today is free to download without increasing Download ]

DL-List and Torrent activity
Последний обряд (Дом страха) / DemonicГод выпуска: 2015
Страна: США, Великобритания
Производство: Dimension Films, First Point Entertainment, Icon Entertainmnet International
Жанр: ужасы, триллер
Режиссёр: Уилл Кэнон
В ролях: Мария Белло, Фрэнк Грилло, Коуди Хорн, Дастин Миллиган, Меган Парк, Скотт Мехловиц, Аарон Ю, Алекс Гуд, Эштон Ли, Терренс Розмор
Перевод: Профессиональный (полное дублирование)
Субтитры: Отсутствуют
Описание: Жуткое убийство происходит в заброшенном доме. Полиция обнаруживает три трупа и одного выжившего свидетеля. Он рассказывает, что его друзья погибли во время спиритического сеанса. Дата премьеры (мир): 12 февраля 2015, ...
Дата премьеры (РФ): 21 января 2016, «Экспонента»
Качество: HDRip
Продолжительность: 01:23:31
Формат: AVI
Видео кодек: XviD
Аудио кодек: MP3
Видео: 688x288 (2.40:1), 23.976 fps, XviD build 73 ~1 115 kbps avg, 0.235 bit/pixel
Аудио: 48 kHz, MPEG Layer 3, 2 ch, ~128.00 kbps avg


Format : AVI
Format/Info : Audio Video Interleave
File size : 744 MiB
Duration : 1h 23mn
Overall bit rate : 1 252 Kbps
Writing application : VirtualDubMod | www.virtualdub-fr.org || (build 2550/release)
Writing library : VirtualDubMod build 2550/release
ID : 0
Format : MPEG-4 Visual
Format profile : Advanced Simple@L5
Format settings, BVOP : 1
Format settings, QPel : No
Format settings, GMC : No warppoints
Format settings, Matrix : Custom
Codec ID : XVID
Codec ID/Hint : XviD
Duration : 1h 23mn
Bit rate : 1 115 Kbps
Width : 688 pixels
Height : 288 pixels
Display aspect ratio : 2.40:1
Frame rate : 23.976 fps
Color space : YUV
Chroma subsampling : 4:2:0
Bit depth : 8 bits
Scan type : Progressive
Compression mode : Lossy
Bits/(Pixel*Frame) : 0.235
Stream size : 663 MiB (89%)
Writing library : XviD 73
ID : 1
Format : MPEG Audio
Format version : Version 1
Format profile : Layer 3
Codec ID : 55
Codec ID/Hint : MP3
Duration : 1h 23mn
Bit rate mode : Constant
Bit rate : 128 Kbps
Channel(s) : 2 channels
Sampling rate : 48.0 KHz
Compression mode : Lossy
Stream size : 76.1 MiB (10%)
Alignment : Aligned on interleaves
Interleave, duration : 42 ms (1.00 video frame)
Interleave, preload duration : 504 ms
Writing library : LAME3.99r
Encoding settings : -m s -V 4 -q 2 -lowpass 17 -b 128



Display posts:    

Current time is: 27-Oct 02:11

All times are UTC + 3

You cannot post new topics in this forum
You cannot reply to topics in this forum
You cannot edit your posts in this forum
You cannot delete your posts in this forum
You cannot vote in polls in this forum
You cannot attach files in this forum
You cannot download files in this forum

The site does not give electronic versions of products, and is engaged only in a collecting and cataloguing of the references sent and published at a forum by our readers. If you are the legal owner of any submitted material and do not wish that the reference to it was in our catalogue, contact us and we shall immediately remove her. Files for an exchange on tracker are given by users of a site, and the administration does not bear the responsibility for their maintenance. The request to not fill in the files protected by copyrights, and also files of the illegal maintenance!