[ Сегодня идет свободное скачивание без начисления Download ]


Статистика раздачи
Нет
 
   
 
Top  
 
 
Выживший / The Revenant «До последней капли крови»Год выпуска: 2013
Страна: США
Производство: Anonymous Content, Appian Way, New Regency Pictures, RatPac Entertainment, Soho VFX
Жанр: триллер, драма, приключения, вестерн
Режиссёр: Алехандро Гонсалес Иньярриту
В ролях: Леонардо ДиКаприо, Том Харди, Донал Глисон, Уилл Поултер, Пол Андерсон, Лукас Хаас, Брэд Картер, Кристоффер Йонер, Брендан Флетчер, Хавьер Ботет, Кори Грим, Роберт Молони, Винсент Леклерк, Джошуа Бёрдж, МакКалеб Барнетт, Рэй Чейз, Тимоти Лайл, Эдриан Макморран, Дэйв Бурчилл, Майкл Виллар
Перевод: Профессиональный (полное дублирование) [iTunes]
Субтитры: русские (форсированные, полные), украинские (форсированные, полные), английские (форсированные, полные, SDH): вшитые, отключаемые
Описание: Охотник Хью Гласс серьезно ранен на неизведанных просторах американского Дикого Запада. Товарищ Хью по отряду покорителей новых земель Джон Фицжеральд предательски оставляет его умирать в одиночестве. Теперь у Гласса осталось только одно оружие — его сила воли. Он готов бросить вызов первобытной природе, суровой зиме и враждебным племенам индейцев, только чтобы выжить и отомстить Фицжеральду.
сэмпл
Премьера (мир): 16 декабря 2015, ...
Премьера (РФ): 7 января 2016, «Двадцатый Век Фокс СНГ»
Качество: BDRip-AVC
Продолжительность: 02:36:55
Формат: MKV
Видео кодек: AVC
Аудио кодек: AAC (HE-AAC / LC)
Видео: 836x350 (2.40:1), 23.976 fps, MPEG-4 AVC ~1260 kbps avg, 0.180 bit/pixel
Аудио : 48.0 KHz / 24.0 KHz, AAC (HE-AAC / LC), 2 ch, ~72.00 kbps avg

Отчет MI

Общее
Уникальный идентификатор : 181738004670744466796498150087661204484 (0x88B9776E0ABF69A6A72704795E103404)
Полное имя : M:1RipsThe RevenantThe.Revenant.2015.BDRip-AVC.Dub.1.45Gb.stalkerok.new-team.mkv
Формат : Matroska
Версия формата : Version 4 / Version 2
Размер файла : 1,45 Гбайт
Длительность : 2 ч. 36 м.
Общий поток : 1321 Кбит/сек
Название фильма : The Revenant (2015) (New-Team) (Rip by Stalker oK)
Дата кодирования : UTC 2016-04-09 12:32:30
Программа кодирования : mkvmerge v8.6.1 ('Flying') 64bit
Библиотека кодирования : libebml v1.3.3 + libmatroska v1.4.4
Видео
Идентификатор : 1
Формат : AVC
Формат/Информация : Advanced Video Кодек
Профиль формата : High@L4.1
Параметр CABAC формата : Да
Параметр ReFrames формата : 14 кадров
Идентификатор кодека : V_MPEG4/ISO/AVC
Длительность : 2 ч. 36 м.
Битрейт : 1260 Кбит/сек
Ширина : 836 пикселей
Высота : 350 пикселей
Соотношение сторон : 2,40:1
Соотношение сторон в оригинале : 2,40:1
Режим частоты кадров : Постоянный
Частота кадров : 23,976 (24000/1001) кадра/сек
Цветовое пространство : YUV
Субдискретизация насыщенности : 4:2:0
Битовая глубина : 8 бит
Тип развёртки : Прогрессивная
Бит/(Пиксели*Кадры) : 0.180
Размер потока : 1,37 Гбайт (94%)
Заголовок : The Revenant (2015) (New-Team) (Rip by Stalker oK)
Библиотека кодирования : x264 core 148 r2665kMod a01e339
Настройки программы : cabac=1 / ref=14 / deblock=1:-3:-3 / analyse=0x3:0x133 / me=umh / subme=11 / psy=1 / fade_compensate=0.00 / psy_rd=1.00:0.10 / mixed_ref=1 / me_range=48 / chroma_me=1 / trellis=2 / 8x8dct=1 / cqm=0 / deadzone=21,11 / fast_pskip=0 / chroma_qp_offset=-3 / threads=11 / lookahead_threads=2 / sliced_threads=0 / nr=0 / decimate=0 / interlaced=0 / bluray_compat=0 / constrained_intra=0 / fgo=0 / bframes=15 / b_pyramid=2 / b_adapt=2 / b_bias=0 / direct=3 / weightb=1 / open_gop=0 / weightp=2 / keyint=240 / keyint_min=23 / scenecut=40 / intra_refresh=0 / rc_lookahead=60 / rc=2pass / mbtree=0 / bitrate=1260 / ratetol=1.0 / qcomp=0.70 / qpmin=0 / qpmax=69 / qpstep=4 / cplxblur=20.0 / qblur=0.5 / vbv_maxrate=50000 / vbv_bufsize=62500 / nal_hrd=none / filler=0 / ip_ratio=1.40 / pb_ratio=1.30 / aq=3:0.90
Default : Да
Forced : Нет
Аудио
Идентификатор : 2
Формат : AAC
Формат/Информация : Advanced Audio Кодек
Профиль формата : HE-AAC / LC
Идентификатор кодека : A_AAC
Длительность : 2 ч. 36 м.
Битрейт : 72,0 Кбит/сек
Каналы : 2 канала
Расположение каналов : Front: L R
Частота : 48,0 КГц / 24,0 КГц
Частота кадров : 23,438 кадра/сек (1024 spf)
Метод сжатия : С потерями
Задержка видео : 31 мс.
Размер потока : 80,5 Мбайт (5%)
Язык : Russian
Default : Да
Forced : Нет
Текст #1
Идентификатор : 3
Формат : UTF-8
Идентификатор кодека : S_TEXT/UTF8
Идентификатор кодека/Информация : UTF-8 Plain Text
Длительность : 2 ч. 35 м.
Битрейт : 5 бит/сек
Count of elements : 146
Размер потока : 6,05 Кбайт (0%)
Заголовок : forced
Язык : Russian
Default : Да
Forced : Нет
Текст #2
Идентификатор : 4
Формат : UTF-8
Идентификатор кодека : S_TEXT/UTF8
Идентификатор кодека/Информация : UTF-8 Plain Text
Длительность : 2 ч. 35 м.
Битрейт : 37 бит/сек
Count of elements : 847
Размер потока : 43,0 Кбайт (0%)
Язык : Russian
Default : Нет
Forced : Нет
Текст #3
Идентификатор : 5
Формат : UTF-8
Идентификатор кодека : S_TEXT/UTF8
Идентификатор кодека/Информация : UTF-8 Plain Text
Длительность : 2 ч. 35 м.
Битрейт : 5 бит/сек
Count of elements : 146
Размер потока : 5,76 Кбайт (0%)
Заголовок : forced
Язык : Ukrainian
Default : Нет
Forced : Нет
Текст #4
Идентификатор : 6
Формат : UTF-8
Идентификатор кодека : S_TEXT/UTF8
Идентификатор кодека/Информация : UTF-8 Plain Text
Длительность : 2 ч. 35 м.
Битрейт : 38 бит/сек
Count of elements : 846
Размер потока : 44,5 Кбайт (0%)
Язык : Ukrainian
Default : Нет
Forced : Нет
Текст #5
Идентификатор : 7
Формат : UTF-8
Идентификатор кодека : S_TEXT/UTF8
Идентификатор кодека/Информация : UTF-8 Plain Text
Длительность : 2 ч. 35 м.
Битрейт : 3 бит/сек
Count of elements : 135
Размер потока : 3,56 Кбайт (0%)
Заголовок : forced
Язык : English
Default : Нет
Forced : Нет
Текст #6
Идентификатор : 8
Формат : UTF-8
Идентификатор кодека : S_TEXT/UTF8
Идентификатор кодека/Информация : UTF-8 Plain Text
Длительность : 2 ч. 20 м.
Битрейт : 26 бит/сек
Count of elements : 981
Размер потока : 26,9 Кбайт (0%)
Язык : English
Default : Нет
Forced : Нет
Текст #7
Идентификатор : 9
Формат : UTF-8
Идентификатор кодека : S_TEXT/UTF8
Идентификатор кодека/Информация : UTF-8 Plain Text
Длительность : 2 ч. 25 м.
Битрейт : 30 бит/сек
Count of elements : 1275
Размер потока : 32,7 Кбайт (0%)
Заголовок : SDH
Язык : English
Default : Нет
Forced : Нет
Меню
00:00:00.000 : en:Chapter 1
00:05:04.846 : en:Chapter 2
00:07:58.310 : en:Chapter 3
00:13:18.964 : en:Chapter 4
00:21:10.685 : en:Chapter 5
00:28:21.657 : en:Chapter 6
00:37:07.766 : en:Chapter 7
00:44:00.346 : en:Chapter 8
00:48:14.974 : en:Chapter 9
00:51:42.264 : en:Chapter 10
00:56:51.032 : en:Chapter 11
00:59:50.753 : en:Chapter 12
01:03:31.766 : en:Chapter 13
01:11:52.432 : en:Chapter 14
01:16:36.131 : en:Chapter 15
01:21:22.377 : en:Chapter 16
01:28:31.139 : en:Chapter 17
01:37:29.969 : en:Chapter 18
01:48:44.643 : en:Chapter 19
01:53:08.782 : en:Chapter 20
01:59:05.930 : en:Chapter 21
02:02:56.702 : en:Chapter 22
02:15:45.261 : en:Chapter 23
02:22:51.020 : en:Chapter 24

Скриншоты

[Цитировать]



Показать сообщения:    

Текущее время: 22-Фев 02:30

Часовой пояс: UTC + 3


Вы не можете начинать темы
Вы не можете отвечать на сообщения
Вы не можете редактировать свои сообщения
Вы не можете удалять свои сообщения
Вы не можете голосовать в опросах
Вы не можете прикреплять файлы к сообщениям
Вы не можете скачивать файлы

!ВНИМАНИЕ!
Сайт не предоставляет электронные версии произведений, а занимается лишь коллекционированием и каталогизацией ссылок, присылаемых и публикуемых на форуме нашими читателями. Если вы являетесь правообладателем какого-либо представленного материала и не желаете, чтобы ссылка на него находилась в нашем каталоге, свяжитесь с нами, и мы незамедлительно удалим ее. Файлы для обмена на трекере предоставлены пользователями сайта, и администрация не несет ответственности за их содержание. Просьба не заливать файлы, защищенные авторскими правами, а также файлы нелегального содержания!