[ Сегодня идет свободное скачивание без начисления Download ]


Статистика раздачи
Нет
 
   
 
Top  
 
 
- Эйзенштейн в Гуанахуато / Eisenstein in Guanajuato (2015) WEB-DL [H.264/720-LQ] - Производство: Нидерланды, Мексика, Финляндия, Бельгия, Франция, Yleisradio (YLE), Vrijzinnig Protestantse Radio Omroep (VPRO), ZDF/Arte, Fu Works, Mollywood, Edith Film Oy, Potemkino, Submarine, Paloma Negra Films
Жанр: Комедия, Мелодрама
Режиссер: Питер Гринуэй
Актеры: Элмер Бэк, Луис Алберти, Майя Сапата, Лиза Оуэн, Стелио Саванте, Якоб Ёрман, Алан дель Кастильо, Райно Ранта
Описание:
В октябре 1931 года маститый кинорежиссёр Сергей Эйзенштейн, которому на тот момент тридцать три года, всё ещё девственник, путешествует по Мексике, работая над фильмом «Да здравствует Мексика!» (Que viva México), финансируемым частным образом американскими сторонниками коммунистов во главе с писателем Эптоном Синклером. Эйзенштейн намерен провести несколько дней в Гуанахуато, прекрасном городе серебряных копей XVIII века, где собирается увидеть и заснять знаменитый Музей Мертвецов. Осведомлённый о враждебном отношении к нему в меняющейся при Сталине советской России, одинокий и тоскующий по родине Эйзенштейн сталкивается здесь с новыми способами мифологического мышления — далёкими от европейских традиций. Он открывает идеи начала XX века, связанные с мифом о благородном дикаре, мифом о невинной жизни, плотскими сущностями секса и смерти. Открытия сильно потрясают его. На фоне этих декораций Эйзенштейн, очарованный свежестью и жизнеспособностью мексиканской культуры, проживает недолгую историю любви со своим гидом в Гуанахуато — молодым и женатым мексиканским историком Паломино Каньедо. Эйзенштейн проводит в городе десять ярких и чувственных дней (каждый день последовательно пронумерован). Эти переживания изменили Эйзенштейна и сыграли ключевую роль в его жизни и кинокарьере.

Дата мировой премьеры: 11 февраля 2015
Дата премьеры в РФ: 3 января 2016, «Вольга»

Продолжительность: 01:41:20
Качество видео: WEB-DL
Перевод: Любительский двухголосый
Вид субтитров: Отсутствуют
Реклама: Присутствуют вставки голосовой и текстовой рекламы.
Видео: AVC, 1280x536 (2.35:1), 23.976 fps, 3 200 Kbps (0.195 bit/pixel)
Аудио: AC-3, 48.0 KHz, 2 ch, 192 Kbps, CBR

Mediainfo:

Формат                                   : Matroska
Версия формата                           : Version 2
Размер файла                             : 2,39 Гбайт
Продолжительность                        : 1 ч. 41 м.
Общий поток                              : 3373 Кбит/сек
Название фильма                          : [url=http://WWW.DescargasMix.COM]WWW.DescargasMix.COM[/url]
Дата кодирования                         : UTC 2016-04-10 10:15:15
Программа кодирования                    : mkvmerge v8.3.0 ('Over the Horizon') 64bit
Библиотека кодирования                   : libebml v1.3.1 + libmatroska v1.4.2
DURATION                                 : 01:25:15.000000000
NUMBER_OF_FRAMES                         : 4
NUMBER_OF_BYTES                          : 637
_STATISTICS_WRITING_APP                  : mkvmerge v8.3.0 ('Over the Horizon') 64bit
_STATISTICS_WRITING_DATE_UTC             : 2016-04-10 10:15:15
_STATISTICS_TAGS                         : BPS DURATION NUMBER_OF_FRAMES NUMBER_OF_BYTES
Видео
Идентификатор                            : 1
Формат                                   : AVC
Формат/Информация                        : Advanced Video Codec
Профиль формата                          : [url=mailto:High@L4.1]High@L4.1[/url]
Параметр CABAC формата                   : Да
Параметр ReFrames формата                : 4 кадра
Идентификатор кодека                     : V_MPEG4/ISO/AVC
Продолжительность                        : 1 ч. 41 м.
Битрейт                                  : 3200 Кбит/сек
Ширина                                   : 1280 пикселей
Высота                                   : 536 пикселей
Соотношение сторон                       : 2,40:1
Режим частоты кадров                     : Постоянный
Частота кадров                           : 23,976 кадра/сек
Цветовое пространство                    : YUV
Субдискретизация насыщенности            : 4:2:0
Битовая глубина                          : 8 бит
Тип развёртки                            : Прогрессивная
Бит/(Пиксели*Кадры)                      : 0.195
Размер потока                            : 2,20 Гбайт (92%)
Библиотека кодирования                   : x264 core 142 r2479 dd79a61
Настройки программы                      : cabac=1 / ref=1 / deblock=1:0:0 / analyse=0x3:0x113 / me=hex / subme=2 / psy=1 / psy_rd=1.00:0.00 / mixed_ref=0 / me_range=16 / chroma_me=1 / trellis=0 / 8x8dct=1 / cqm=0 / deadzone=21,11 / fast_pskip=1 / chroma_qp_offset=0 / threads=48 / lookahead_threads=4 / sliced_threads=0 / nr=0 / decimate=1 / interlaced=0 / bluray_compat=0 / constrained_intra=0 / bframes=3 / b_pyramid=2 / b_adapt=1 / b_bias=0 / direct=1 / weightb=1 / open_gop=0 / weightp=1 / keyint=240 / keyint_min=24 / scenecut=40 / intra_refresh=0 / rc_lookahead=10 / rc=abr / mbtree=1 / bitrate=3200 / ratetol=1.0 / qcomp=0.60 / qpmin=0 / qpmax=69 / qpstep=4 / vbv_maxrate=62500 / vbv_bufsize=78125 / nal_hrd=none / filler=0 / ip_ratio=1.40 / aq=1:1.00
Default                                  : Да
Forced                                   : Нет
Цветовой диапазон                        : Limited
Основные цвета                           : BT.709
Характеристики трансфера                 : BT.709
Коэффициенты матрицы                     : BT.709
DURATION                                 : 01:41:20.241000000
NUMBER_OF_FRAMES                         : 145780
NUMBER_OF_BYTES                          : 2416584277
_STATISTICS_WRITING_APP                  : mkvmerge v8.3.0 ('Over the Horizon') 64bit
_STATISTICS_WRITING_DATE_UTC             : 2016-04-10 10:15:15
_STATISTICS_TAGS                         : BPS DURATION NUMBER_OF_FRAMES NUMBER_OF_BYTES
Аудио
Идентификатор                            : 2
Формат                                   : AC-3
Формат/Информация                        : Audio Coding 3
Расширение режима                        : CM (complete main)
Параметр Endianness формата              : Big
Идентификатор кодека                     : A_AC3
Продолжительность                        : 1 ч. 41 м.
Вид битрейта                             : Постоянный
Битрейт                                  : 192 Кбит/сек
Каналы                                   : 2 канала
Расположение каналов                     : Front: L R
Частота                                  : 48,0 КГц
Битовая глубина                          : 16 бит
Метод сжатия                             : С потерями
Задержка видео                           : -83 мс.
Размер потока                            : 139 Мбайт (6%)
Язык                                     : Russian
Default                                  : Да
Forced                                   : Да
Текст
Идентификатор                            : 3
Формат                                   : UTF-8
Идентификатор кодека                     : S_TEXT/UTF8
Идентификатор кодека/Информация          : UTF-8 Plain Text
Default                                  : Да
Forced                                   : Да
Скриншоты:

[Цитировать]



Показать сообщения:    

Текущее время: 02-Дек 22:55

Часовой пояс: UTC + 3


Вы не можете начинать темы
Вы не можете отвечать на сообщения
Вы не можете редактировать свои сообщения
Вы не можете удалять свои сообщения
Вы не можете голосовать в опросах
Вы не можете прикреплять файлы к сообщениям
Вы не можете скачивать файлы

!ВНИМАНИЕ!
Сайт не предоставляет электронные версии произведений, а занимается лишь коллекционированием и каталогизацией ссылок, присылаемых и публикуемых на форуме нашими читателями. Если вы являетесь правообладателем какого-либо представленного материала и не желаете, чтобы ссылка на него находилась в нашем каталоге, свяжитесь с нами, и мы незамедлительно удалим ее. Файлы для обмена на трекере предоставлены пользователями сайта, и администрация не несет ответственности за их содержание. Просьба не заливать файлы, защищенные авторскими правами, а также файлы нелегального содержания!