[ Сегодня идет свободное скачивание без начисления Download ]


Статистика раздачи
Нет
 
   
 
Top  
 
 
« Жестокие игры / Cruel Intentions »« Everyone does it, no one talks about it »- Информация :

» Год выпуска: 1999
» Страна: США
» Производство: Columbia Pictures Corporation, Cruel Productions LLC, Newmarket Capital Group LLC, Original Film
» Жанр: Триллер, драма, мелодрама
» Режиссёр: Роджер Камбл
» В ролях: Сара Мишель Геллар, Райан Филипп, Риз Уизерспун, Сэльма Блэр, Луиз Флетчер, Джошуа Джексон, Эрик Мэбиус, Шон Патрик Томас, Свузи Кертц, Кристин Барански, Alaina Reed Hall, Дебора Оффнер, Тара Рейд, Herta Ware, Hiep Thi Le, Чарли О`Коннелл, Фред Норрис, Джинджер Уильямс, Дрю Снайдер, Фил Хоун
» Перевод: Професиональный (многолосый, закадровый)
» Субтитры: Нет
Описание :
» Краткое содержание: Себастьян знает сладкий привкус легких побед. В его руках — чужие тайны и ключи от неприступных спален. Катрин устала от простых интриг и банальных признаний. Тогда современный Казанова и скучающая красавица придумывают себе новое развлечение. В их жестокой игре не хватает только жертвы…- -Тех - данные :
» Качество: HDRip
» Продолжительность: 1:37:28 | |
» Формат: AVI
» Видео кодек: XviD
» Аудио кодек: MP3
» Видео: 656x352, (1,85:1), 23,976 fps, XviD, 929 kbps avg, 0.168 bit/pixel
» Аудио #1: 48.0 khz, Mp3, 2 ch, 128 kbps | | - Russian
-

Премьеры

» Дата премьеры (мир): 5 марта 1999 «
» Сценарий: Роджер Камбл, Шодерло де Лакло «
» Продюсеры: Нил Х. Мориц, Кристофер Болл, Майкл Фоттрел«

MediaInfo

Общее
Полное имя                               : C:\Скачанные Файлы\Хранение раздач\Zhestokie.Igry.1999.HDRip.avi
Формат                                   : AVI
Формат/Информация                        : Audio Video Interleave
Размер файла                             : 743 Мбайт
Продолжительность                        : 1 ч. 37 м.
Общий поток                              : 1066 Кбит/сек
Программа кодирования                    : VirtualDubMod 1.5.10.2 (build 2540/release)
Библиотека кодирования                   : VirtualDubMod build 2540/release
Примечание                               : HDRip by Punnep
Видео
Идентификатор                            : 0
Формат                                   : MPEG-4 Visual
Профиль формата                          : Advanced [email protected]
Параметр BVOP формата                    : 1
Параметр QPel формата                    : Нет
Параметр GMC формата                     : Без точки перехода
Параметр матрицы формата                 : Выборочная
Идентификатор кодека                     : XVID
Идентификатор кодека/Подсказка           : XviD
Продолжительность                        : 1 ч. 37 м.
Битрейт                                  : 929 Кбит/сек
Ширина                                   : 656 пикселей
Высота                                   : 352 пикселя
Соотношение сторон                       : 1,85:1
Частота кадров                           : 23,976 кадра/сек
Цветовое пространство                    : YUV
Субдискретизация насыщенности            : 4:2:0
Битовая глубина                          : 8 бит
Тип развёртки                            : Прогрессивная
Метод сжатия                             : С потерями
Бит/(Пиксели*Кадры)                      : 0.168
Размер потока                            : 647 Мбайт (87%)
Библиотека кодирования                   : XviD 1.2.1 (UTC 2008-12-04)
Аудио
Идентификатор                            : 1
Формат                                   : MPEG Audio
Версия формата                           : Version 1
Профиль формата                          : Layer 3
Режим                                    : Joint stereo
Расширение режима                        : MS Stereo
Идентификатор кодека                     : 55
Идентификатор кодека/Подсказка           : MP3
Продолжительность                        : 1 ч. 37 м.
Вид битрейта                             : Постоянный
Битрейт                                  : 128 Кбит/сек
Каналы                                   : 2 канала
Частота                                  : 48,0 КГц
Метод сжатия                             : С потерями
Размер потока                            : 89,2 Мбайт (12%)
Выравнивание                             : Соединение по промежуткам
Продолжительность промежутка             : 42  мс. (1,00 видеокадр)
Время предзагрузки промежутка            : 504  мс.
Библиотека кодирования                   : LAME3.98r
Настройки программы                      : -m j -V 4 -q 2 -lowpass 17 -b 128
-[th]http://torrentsclub.org/pictures/b3662150012c129209...001598e.png[/th]-

[Цитировать]



Показать сообщения:    

Текущее время: 04-Дек 11:17

Часовой пояс: UTC + 3


Вы не можете начинать темы
Вы не можете отвечать на сообщения
Вы не можете редактировать свои сообщения
Вы не можете удалять свои сообщения
Вы не можете голосовать в опросах
Вы не можете прикреплять файлы к сообщениям
Вы не можете скачивать файлы

!ВНИМАНИЕ!
Сайт не предоставляет электронные версии произведений, а занимается лишь коллекционированием и каталогизацией ссылок, присылаемых и публикуемых на форуме нашими читателями. Если вы являетесь правообладателем какого-либо представленного материала и не желаете, чтобы ссылка на него находилась в нашем каталоге, свяжитесь с нами, и мы незамедлительно удалим ее. Файлы для обмена на трекере предоставлены пользователями сайта, и администрация не несет ответственности за их содержание. Просьба не заливать файлы, защищенные авторскими правами, а также файлы нелегального содержания!