[ Сегодня идет свободное скачивание без начисления Download ]


Статистика раздачи
Нет
 
   
 
Top  
 
 
Metallica - Ultimate video collection (2009-2012) Название: Ultimate video collection
Исполнитель: Metallica
Год: 2009-2012
Жанр: Trash metal, Heavy metal
Страна: USA
Продолжительность: 02:12:01, 02:25:14, 02:17:04, 02:15:01, + 03:06:17, 02:08:11, 00:49:13 ч.
Формат/Кодек: MKV

Трек-лист

Francais Pour Une Nuit
Треклист:
1. The Ecstasy of Gold
2. Blackened
3. Creeping Death
4. Fuel
5. Harvester of Sorrow
6. Fade to Black
7. Broken, Beat & Scarred
8. Cyanide
9. Sad but True
10. One
11. All Nightmare Long
12. The Day That Never Comes
13. Master of Puppets
14. Dyers Eve
15. Nothing Else Matters
16. Enter Sandman
17. Stone Cold Crazy
18. Motorbreath
19. Seek & Destroy
Orgullo, Pasion, y Gloria: Tres Noches en la Ciudad de Mexico
Треклист:
1. The Ecstasy of Gold
2. Creeping Death
3. For Whom the Bell Tolls
4. Ride the Lightning
5. Disposable Heroes
6. One
7. Broken, Beat & Scarred
8. The Memory Remains
9. Sad but True
10. The Unforgiven
11. All Nightmare Long
12. The Day That Never Comes
13. Master of Puppets
14. Fight Fire with Fire
15. Nothing Else Matters
16. Enter Sandman
17. The Wait
18. Hit the Lights
19. Seek & Destroy
Fan can six
Треклист:
1. The Ecstasy Of Gold
2. That Was Just Your Life
3. The End Of The Line
4. Ride The Lightning
5. The Memory Remains
6. One
7. Broken, Beat And Scarred
8. Leper Messiah
9. Sad But True
10. No Leaf Clover
11. Suicide And Redemption
12. The Day That Never Comes
13. Master Of Puppets
14. Dyers Eve
15. Nothing Else Matters
16. Enter Sandman
17. Last Caress
18. Phantom Lord
19. Seek And Destroy
Quebec Magnetic
Треклист:
1. The Ecstasy of Gold
2. That Was Just Your Life
3. The End of the Line
4. The Four Horsemen
5. The Shortest Straw
6. One
7. Broken, Beat & Scarred
8. My Apocalypse
9. Sad But True
10. Welcome Home (Sanitarium)
11. The Judas Kiss
12. The Day That Never Comes
13. Master of Puppets
14. Battery
15. Nothing Else Matters
16. Enter Sandman
17. Killing Time
18. Whiplash
19. Seek & Destroy
Sonisphere Festival - The Big Four Live in Sofia
Треклист:
Anthrax
1. Caught in a Mosh
2. Got the Time
3. Madhouse
4. Be All, End All
5. Antisocial
6. Indians
7. Medusa
8. Only
9. Metal Thrashing Mad
10. I Am the Law
Megadeth
1. Holy Wars... The Punishment Due
2. Hangar 18
3. Wake Up Dead
4. Head Crusher
5. In My Darkest Hour
6. Skin o' My Teeth
7. A Tout le Monde
8. Hook in Mouth
9. Trust
10. Sweating Bullets
11. Symphony of Destruction
12. Peace Sells/Holy Wars Reprise
Slayer
1. World Painted Blood
2. Jihad
3. War Ensemble
4. Hate Worldwide
5. Seasons in the Abyss
6. Angel of Death
7. Beauty Through Order
8. Disciple
9. Mandatory Suicide
10. Chemical Warfare
11. South of Heaven
12. Raining Blood
Metallica
1. The Ecstasy of Gold
2. Creeping Death
3. For Whom the Bell Tolls
4. Fuel
5. Harvester of Sorrow
6. Fade to Black
7. That Was Just Your Life
8. Cyanide
9. Sad but True
10. Welcome Home (Sanitarium)
11. All Nightmare Long
12. One
13. Master of Puppets
14. Blackened
15. Nothing Else Matters
16. Enter Sandman
17. Am I Evil?
18. Hit the Lights

Скриншоты

Mediainfo

Общее
Уникальный идентификатор : 177078830315778913386657169156947125750 (0x853824660DDBA60CA38D9F236C9525F6)
Полное имя : D:Торрент файлыMetallica. Ultimate video collection3. Fan Can VI.mkv
Формат : Matroska
Версия формата : Version 4 / Version 2
Размер файла : 8,03 Гбайт
Продолжительность : 2 ч. 17 м.
Общий поток : 8392 Кбит/сек
Дата кодирования : UTC 2016-03-19 17:20:45
Программа кодирования : mkvmerge v8.8.0 ('Wind at my back') 64bit
Библиотека кодирования : libebml v1.3.3 + libmatroska v1.4.4
Видео
Идентификатор : 1
Формат : AVC
Формат/Информация : Advanced Video Codec
Профиль формата : High@L4.1
Параметр CABAC формата : Да
Параметр ReFrames формата : 8 кадров
Идентификатор кодека : V_MPEG4/ISO/AVC
Продолжительность : 2 ч. 17 м.
Битрейт : 7750 Кбит/сек
Ширина : 1280 пикселей
Высота : 720 пикселей
Соотношение сторон : 16:9
Режим частоты кадров : Постоянный
Частота кадров : 23,976 кадра/сек
Цветовое пространство : YUV
Субдискретизация насыщенности : 4:2:0
Битовая глубина : 8 бит
Тип развёртки : Прогрессивная
Бит/(Пиксели*Кадры) : 0.351
Размер потока : 7,26 Гбайт (90%)
Библиотека кодирования : x264 core 148 r2638M 7599210
Настройки программы : cabac=1 / ref=8 / deblock=1:-1:-1 / analyse=0x3:0x133 / me=tesa / subme=10 / psy=0 / mixed_ref=0 / me_range=24 / chroma_me=1 / trellis=2 / 8x8dct=1 / cqm=0 / deadzone=21,11 / fast_pskip=0 / chroma_qp_offset=0 / threads=7 / lookahead_threads=1 / sliced_threads=0 / nr=10 / decimate=1 / interlaced=0 / bluray_compat=0 / constrained_intra=0 / bframes=8 / b_pyramid=2 / b_adapt=2 / b_bias=0 / direct=3 / weightb=0 / open_gop=0 / weightp=2 / keyint=230 / keyint_min=23 / scenecut=40 / intra_refresh=0 / rc=2pass / mbtree=0 / bitrate=7750 / ratetol=1.0 / qcomp=0.70 / qpmin=3 / qpmax=69 / qpstep=4 / cplxblur=20.0 / qblur=0.5 / ip_ratio=1.40 / pb_ratio=1.30 / aq=2:0.60
Язык : English
Default : Да
Forced : Нет
Основные цвета : BT.709
Характеристики трансфера : BT.709
Коэффициенты матрицы : BT.709
DURATION : 02:17:04.091000000
NUMBER_OF_FRAMES : 197181
NUMBER_OF_BYTES : 7967529122
_STATISTICS_WRITING_APP : mkvmerge v8.8.0 ('Wind at my back') 64bit
_STATISTICS_WRITING_DATE_UTC : 2016-03-19 17:20:45
_STATISTICS_TAGS : BPS DURATION NUMBER_OF_FRAMES NUMBER_OF_BYTES
Аудио
Идентификатор : 2
Формат : AC-3
Формат/Информация : Audio Coding 3
Расширение режима : CM (complete main)
Параметр Endianness формата : Big
Идентификатор кодека : A_AC3
Продолжительность : 2 ч. 17 м.
Вид битрейта : Постоянный
Битрейт : 640 Кбит/сек
Каналы : 6 каналов
Расположение каналов : Front: L C R, Side: L R, LFE
Частота : 48,0 КГц
Битовая глубина : 16 бит
Метод сжатия : С потерями
Задержка видео : 27 мс.
Размер потока : 627 Мбайт (8%)
Язык : English
Default : Да
Forced : Нет
DURATION : 02:17:04.032000000
NUMBER_OF_FRAMES : 257001
NUMBER_OF_BYTES : 657922560
_STATISTICS_WRITING_APP : mkvmerge v8.8.0 ('Wind at my back') 64bit
_STATISTICS_WRITING_DATE_UTC : 2016-03-19 17:20:45
_STATISTICS_TAGS : BPS DURATION NUMBER_OF_FRAMES NUMBER_OF_BYTES

[Цитировать]



Показать сообщения:    

Текущее время: 11-Дек 07:09

Часовой пояс: UTC + 3


Вы не можете начинать темы
Вы не можете отвечать на сообщения
Вы не можете редактировать свои сообщения
Вы не можете удалять свои сообщения
Вы не можете голосовать в опросах
Вы не можете прикреплять файлы к сообщениям
Вы не можете скачивать файлы

!ВНИМАНИЕ!
Сайт не предоставляет электронные версии произведений, а занимается лишь коллекционированием и каталогизацией ссылок, присылаемых и публикуемых на форуме нашими читателями. Если вы являетесь правообладателем какого-либо представленного материала и не желаете, чтобы ссылка на него находилась в нашем каталоге, свяжитесь с нами, и мы незамедлительно удалим ее. Файлы для обмена на трекере предоставлены пользователями сайта, и администрация не несет ответственности за их содержание. Просьба не заливать файлы, защищенные авторскими правами, а также файлы нелегального содержания!