[ Сегодня идет свободное скачивание без начисления Download ]


Статистика раздачи
Нет
 
   
 
 
 
-Чёрная сталь / Kuromukuro / クロムクロ- Год выпуска: 2016 г.
Страна: Япония
Жанр: Приключения, Меха-Тип: TV-Продолжительность: 12 эп. по 00:23:59
Режиссер: Окамура Тэнсай
Студия: P.A. Works-Перевод:

Русские субтитры от AOS
Русские субтитры от zafhos-Озвучка:
Многоголосая от BalFor & Гамлетка Цезаревна & 9й Неизвестный & Oriko (AniDub) -sample
Двухголосая от (жен/муж) Itashi & Nuts (Anilibria) -sample
Двухголосая от (жен/муж) Viki & gobr (SHIZA) -sample
Двухголосая от (муж/жен) Sedrix & Kona_chan (Onibaku) -sample-Описание:
Во время строительства плотины "Куробе" был обнаружен древний артефакт, после находки которого появляется Научно-исследовательский центр Объединенных Наций "Куробу". Самые выдающиеся ученых со всего мира собрались, чтобы изучить найденый объект, а их дети, среди которых была и дочь главы центра, Юкина Ширахане, поступают в международную старшую школу.-Информационные ссылки: World Art || AniDB || MAL-Качество: HDTVRip | Рип: [Leopard-Raws]
Тип релиза: Без хардсаба
Формат видео: MP4
Наличие линковки: Нет
Видео: AVC, 1280x720, 2343 kbps, 23.976 fps [8 bit]
Аудио
:
1. Russian AC3, 48.0 KHz, 192 kbps, 2 ch (внешние) - [AniDub];
2. Russian AC3, 48.0 KHz, 192 kbps, 2 ch (внешние) - [Anilibria];
3. Russian AC3, 48.0 KHz, 192 kbps, 2 ch (внешние) - [SHIZA];
4. Russian AC3, 48.0 KHz, 192 kbps, 2 ch (внешние) - [Onibaku];
5. Japanese AAC, 48.0 KHz, 192 kbps, 2 ch;
Субтитры:

Russian: ASS, внешние;

Подробные тех. данные

General Format : MPEG-4 Format profile : Base Media Codec ID : isom File size : 436 MiB Duration : 23mn 59s Overall bit rate mode : Variable Overall bit rate : 2 538 Kbps Encoded date : UTC 2016-04-07 18:55:10 Tagged date : UTC 2016-04-07 18:55:10 Video #1 ID : 1 Format : AVC Format/Info : Advanced Video Codec Format profile : [email protected] Format settings, CABAC : Yes Format settings, ReFrames : 4 frames Codec ID : avc1 Codec ID/Info : Advanced Video Coding Duration : 23mn 59s Bit rate : 2 343 Kbps Maximum bit rate : 14.7 Mbps Width : 1 280 pixels Height : 720 pixels Display aspect ratio : 16:9 Frame rate mode : Constant Frame rate : 23.976 fps Color space : YUV Chroma subsampling : 4:2:0 Bit depth : 8 bits Scan type : Progressive Bits/(Pixel*Frame) : 0.106 Stream size : 402 MiB (92%) Title : 264:[email protected] Writing library : x264 core 129 r2245+729M 1a52e03 Encoding settings : cabac=1 / ref=4 / deblock=1:1:-1 / analyse=0x3:0x113 / me=umh / subme=9 / psy=1 / fade_compensate=0.00 / psy_rd=1.00:0.00 / mixed_ref=1 / me_range=24 / chroma_me=1 / trellis=2 / 8x8dct=1 / cqm=0 / deadzone=21,11 / fast_pskip=1 / chroma_qp_offset=-2 / threads=8 / lookahead_threads=1 / sliced_threads=0 / nr=0 / decimate=1 / interlaced=0 / bluray_compat=0 / constrained_intra=0 / fgo=0 / bframes=9 / b_pyramid=2 / b_adapt=2 / b_bias=0 / direct=1 / weightb=1 / open_gop=0 / weightp=2 / keyint=240 / keyint_min=24 / scenecut=40 / intra_refresh=0 / rc=crf / mbtree=0 / crf=17.5 / qcomp=0.72 / qpmin=0 / qpmax=69 / qpstep=4 / ip_ratio=1.40 / pb_ratio=1.30 / aq=1:0.85 Encoded date : UTC 2016-04-07 18:55:10 Tagged date : UTC 2016-04-07 18:55:14 Color primaries : BT.709 Transfer characteristics : BT.709 Matrix coefficients : BT.709 Audio #2 ID : 2 Format : AAC Format/Info : Advanced Audio Codec Format profile : LC Codec ID : 40 Duration : 23mn 59s Bit rate mode : Variable Bit rate : 192 Kbps Maximum bit rate : 218 Kbps Channel(s) : 2 channels Channel positions : Front: L R Sampling rate : 48.0 KHz Compression mode : Lossy Stream size : 32.9 MiB (8%) Language : Japanese Encoded date : UTC 2016-04-07 16:06:05 Tagged date : UTC 2016-04-07 18:55:14

Список эпизодов

-01. Демоны с небес / Episode 1
02. Пробуждение Чёрной Стали / Episode 2-

Скриншоты

-- Раздача обновлена. Добавлена Вторая серия [19.04.2016] --

[Цитировать]



Показать сообщения:    

Текущее время: 05-Дек 01:25

Часовой пояс: UTC + 3


Вы не можете начинать темы
Вы не можете отвечать на сообщения
Вы не можете редактировать свои сообщения
Вы не можете удалять свои сообщения
Вы не можете голосовать в опросах
Вы не можете прикреплять файлы к сообщениям
Вы не можете скачивать файлы

!ВНИМАНИЕ!
Сайт не предоставляет электронные версии произведений, а занимается лишь коллекционированием и каталогизацией ссылок, присылаемых и публикуемых на форуме нашими читателями. Если вы являетесь правообладателем какого-либо представленного материала и не желаете, чтобы ссылка на него находилась в нашем каталоге, свяжитесь с нами, и мы незамедлительно удалим ее. Файлы для обмена на трекере предоставлены пользователями сайта, и администрация не несет ответственности за их содержание. Просьба не заливать файлы, защищенные авторскими правами, а также файлы нелегального содержания!