[ Today is free to download without increasing Download ]

DL-List and Torrent activity
Кэрол / Carol «Some people change your life forever»Год выпуска: 2015
Страна: Великобритания, США
Производство: Film4, Killer Films, Number 9 Films
Жанр: драма, мелодрама
Режиссёр: Тодд Хейнс
В ролях: Кейт Бланшетт, Руни Мара, Кайл Чандлер, Джейк Лэси, Сара Полсон, Джон Магаро, Кори Майкл Смит, Кевин Краули, Ник Паич, Кэрри Браунштейн, Трент Роулэнд, Эми Уорнер, Майкл Хейни, Венди Лардин, Памела Эванс, Кристин А. Дай, Дуглас Скотт Соренсон, Кен Штрунк, Энн Рескин, Линни Бонд
Перевод: Профессиональный (полное дублирование) [iTunes]
Субтитры: Нет
Описание: В неповторимой атмосфере изысканного Нью-Йорка 50-х годов юная Терез встречает Кэрол, ослепительную зрелую женщину, томящуюся в браке без любви. Мимолетный проблеск влечения перерастает во всепоглощающее чувство, которое навсегда изменит их жизни. Но как довериться любви, если твоя судьба зависит от предрассудков безжалостного времени? [img]сэмплПремьера (мир): 17 мая 2015, ...
Премьера (РФ): 10 марта 2016, «Артхаус»
Качество: HDRip
Продолжительность: 01:58:29
Формат: AVI
Видео кодек: XviD
Аудио кодек: AC3
Видео: 720x384 (1.85:1), 23.976 fps, XviD build 67 ~1 256 kbps avg, 0.189 bit/pixel
Аудио / Русский: 48 kHz, AC3 Dolby Digital, 3/2 (L,C,R,l,r) + LFE ch, ~384.00 kbps avg

Отчет MI

Format : AVI
Format/Info : Audio Video Interleave
Format profile : OpenDML
Format settings : rec
File size : 1.36 GiB
Duration : 1h 58mn
Overall bit rate : 1 645 Kbps
Writing application : AVI-Mux GUI 1.17.8, Aug 30 2008 12:36:58
ID : 0
Format : MPEG-4 Visual
Format profile : Advanced Simple@L5
Format settings, BVOP : 1
Format settings, QPel : No
Format settings, GMC : No warppoints
Format settings, Matrix : Default (MPEG)
Codec ID : XVID
Codec ID/Hint : XviD
Duration : 1h 58mn
Bit rate : 1 256 Kbps
Width : 720 pixels
Height : 384 pixels
Display aspect ratio : 1.85:1
Frame rate : 23.976 fps
Color space : YUV
Chroma subsampling : 4:2:0
Bit depth : 8 bits
Scan type : Progressive
Compression mode : Lossy
Bits/(Pixel*Frame) : 0.189
Stream size : 1.04 GiB (76%)
Writing library : XviD 67
ID : 1
Format : AC-3
Format/Info : Audio Coding 3
Mode extension : CM (complete main)
Format settings, Endianness : Big
Codec ID : 2000
Duration : 1h 58mn
Bit rate mode : Constant
Bit rate : 384 Kbps
Channel(s) : 6 channels
Channel positions : Front: L C R, Side: L R, LFE
Sampling rate : 48.0 KHz
Bit depth : 16 bits
Compression mode : Lossy
Stream size : 325 MiB (23%)
Alignment : Aligned on interleaves
Interleave, duration : 64 ms (1.54 video frames)
Interleave, preload duration : 192 ms
Title : 00008.track_4353



Display posts:    

Current time is: 26-Oct 14:18

All times are UTC + 3

You cannot post new topics in this forum
You cannot reply to topics in this forum
You cannot edit your posts in this forum
You cannot delete your posts in this forum
You cannot vote in polls in this forum
You cannot attach files in this forum
You cannot download files in this forum

The site does not give electronic versions of products, and is engaged only in a collecting and cataloguing of the references sent and published at a forum by our readers. If you are the legal owner of any submitted material and do not wish that the reference to it was in our catalogue, contact us and we shall immediately remove her. Files for an exchange on tracker are given by users of a site, and the administration does not bear the responsibility for their maintenance. The request to not fill in the files protected by copyrights, and also files of the illegal maintenance!