[ Сегодня идет свободное скачивание без начисления Download ]


Статистика раздачи
Нет
 
   
 
Top  
 
 
Миссия в Майами / Ride Along 2 «The brothers-in-law are back» Год выпуска: 2016
Страна: США
Производство: Cube Vision, Universal Pictures, Will Packer Productions
Жанр: боевик, комедия
Режиссер: Тим Стори
В ролях: Айс Кьюб, Кевин Харт, Тика Самптер, Бенджамин Брэтт, Оливия Манн, Кен Жонг, Брюс МакГилл, Майкл Эдвард Роуз, Шерри Шеперд, Артуро дель Пуэрто, Эрик Гойнс
Перевод: Профессиональный (полное дублирование) [Чистый звук]
Субтитры: Отсутствуют
Примечание: Присутствуют вставки голосовой и текстовой рекламы!
Описание: Накануне собственной свадьбы Бен отправляется с братом своей будущей жены, крутым полицейским Джеймсом, в Майами, чтобы схватить наркодельца. Качество: HDRip
Продолжительность: 01:41:08
Формат: AVI
Видео кодек: XviD
Аудио кодек: AC3
Видео: 720x304 (2,35:1), 23,976 fps, Xvid ~1670 kbps avg, 0.318 bit/pixel
Аудио 1: 48 kHz, AC3, 2 ch, ~384.00 kbps avg | русский | Профессиональный (полное дублирование)[Чистый звук]
премьера (Мир):6 января 2016
премьера (РФ):31 марта 2016, «UPI»

МедиаИнфо

Общее
Полное имя : D:TorrentsЗавершенныеPoezDka.II.2O16.D.HDRip.1.46Gb_KOSHERA.avi
Формат : AVI
Формат/Информация : Audio Video Interleave
Размер файла : 1,46 Гбайт
Продолжительность : 1 ч. 41 м.
Общий поток : 2063 Кбит/сек
Программа кодирования : VirtualDubMod 1.5.10.2 (build 2540/release)
Библиотека кодирования : VirtualDubMod build 2540/release
Видео
Идентификатор : 0
Формат : MPEG-4 Visual
Профиль формата : Advanced [email protected]
Параметр BVOP формата : 2
Параметр QPel формата : Нет
Параметр GMC формата : Без точки перехода
Параметр матрицы формата : Выборочная
Идентификатор кодека : XVID
Идентификатор кодека/Подсказка : XviD
Продолжительность : 1 ч. 41 м.
Битрейт : 1670 Кбит/сек
Ширина : 720 пикселей
Высота : 304 пикселя
Соотношение сторон : 2,35:1
Частота кадров : 23,976 (24000/1001) кадра/сек
Цветовое пространство : YUV
Субдискретизация насыщенности : 4:2:0
Битовая глубина : 8 бит
Тип развёртки : Прогрессивная
Метод сжатия : С потерями
Бит/(Пиксели*Кадры) : 0.318
Размер потока : 1,18 Гбайт (81%)
Библиотека кодирования : XviD 1.2.1 (UTC 2008-12-04)
Аудио
Идентификатор : 1
Формат : AC-3
Формат/Информация : Audio Coding 3
Расширение режима : CM (complete main)
Параметр Endianness формата : Big
Идентификатор кодека : 2000
Продолжительность : 1 ч. 41 м.
Вид битрейта : Постоянный
Битрейт : 384 Кбит/сек
Каналы : 2 канала
Расположение каналов : Front: L R
Частота : 48,0 КГц
Частота кадров : 31,250 кадров/сек (1536 spf)
Метод сжатия : С потерями
Размер потока : 278 Мбайт (19%)
Выравнивание : Разделение по промежуткам
Продолжительность промежутка : 42 мс. (1,00 видеокадр)
Время предзагрузки промежутка : 500 мс.

Скриншоты

[Цитировать]



Показать сообщения:    

Текущее время: 06-Дек 17:10

Часовой пояс: UTC + 3


Вы не можете начинать темы
Вы не можете отвечать на сообщения
Вы не можете редактировать свои сообщения
Вы не можете удалять свои сообщения
Вы не можете голосовать в опросах
Вы не можете прикреплять файлы к сообщениям
Вы не можете скачивать файлы

!ВНИМАНИЕ!
Сайт не предоставляет электронные версии произведений, а занимается лишь коллекционированием и каталогизацией ссылок, присылаемых и публикуемых на форуме нашими читателями. Если вы являетесь правообладателем какого-либо представленного материала и не желаете, чтобы ссылка на него находилась в нашем каталоге, свяжитесь с нами, и мы незамедлительно удалим ее. Файлы для обмена на трекере предоставлены пользователями сайта, и администрация не несет ответственности за их содержание. Просьба не заливать файлы, защищенные авторскими правами, а также файлы нелегального содержания!