[ Сегодня идет свободное скачивание без начисления Download ]


Статистика раздачи
Нет
 
   
 
Top  
 
 
Уроки выживания«Инструкция для начинающих героев» Год выпуска: 2016
Страна: Россия
Производство: KinoProGroup
Жанр: Комедия, семейный, приключения
Режиссёр: Андрей Томашевский
В ролях: Денис Никифоров, Илья Костюков, Екатерина Волкова, Александр Самойленко, Анастасия Черникова
Перевод: Не требуется[iTunes]
Субтитры: Нет
[b]Описание: Женя Аистов — брутальный красавец и лихой летчик. Он знает толк в жизни и женщинах, ценит свободу и… не любит детей. Когда-то он был командиром воздушного судна, а ныне управляет маленьким самолетом, доставляющим грузы на экзотический курорт. Однажды он терпит крушение на необитаемом острове. Но самое ужасное, что вместе с ним на острове оказывается 8-летний мальчишка, смешной и занудливый Коля. Так началась эта веселая «игра» на выживание… Дата премьеры (РФ): 24 марта 2016, «Парадиз»Качество: WEB-DLRip
Продолжительность: 01:22:44
Формат: AVI
Видео кодек: XviD
Аудио кодек: AC3
Видео: 720x304 (16:9), 25 fps, XviD ~1975 kbps avg, 0.361 bit/pixel
Аудио: AC3, 48 kHz, 6 ch, ~384.00 kbps avg

MediaInfo

Общее
Полное имя : D:TorrentsЗавершенныеYPoK1.BizhyBaH1a.2016.O.WEB-DLRip.1400MB.avi
Формат : AVI
Формат/Информация : Audio Video Interleave
Размер файла : 1,37 Гбайт
Продолжительность : 1 ч. 22 м.
Общий поток : 2368 Кбит/сек
Программа кодирования : VirtualDubMod 1.5.10.3 | www.virtualdub-fr.org || (build 2550/release)
Библиотека кодирования : VirtualDubMod build 2550/release
Видео
Идентификатор : 0
Формат : MPEG-4 Visual
Профиль формата : Advanced [email protected]
Параметр BVOP формата : 2
Параметр QPel формата : Нет
Параметр GMC формата : Без точки перехода
Параметр матрицы формата : Default (MPEG)
Идентификатор кодека : XVID
Идентификатор кодека/Подсказка : XviD
Продолжительность : 1 ч. 22 м.
Битрейт : 1975 Кбит/сек
Ширина : 720 пикселей
Высота : 304 пикселя
Соотношение сторон : 2,35:1
Частота кадров : 25,000 кадров/сек
Цветовое пространство : YUV
Субдискретизация насыщенности : 4:2:0
Битовая глубина : 8 бит
Тип развёртки : Прогрессивная
Метод сжатия : С потерями
Бит/(Пиксели*Кадры) : 0.361
Размер потока : 1,14 Гбайт (83%)
Библиотека кодирования : XviD 1.2.1 (UTC 2008-12-04)
Аудио
Идентификатор : 1
Формат : AC-3
Формат/Информация : Audio Coding 3
Расширение режима : CM (complete main)
Параметр Endianness формата : Big
Идентификатор кодека : 2000
Продолжительность : 1 ч. 22 м.
Вид битрейта : Постоянный
Битрейт : 384 Кбит/сек
Каналы : 6 каналов
Расположение каналов : Front: L C R, Side: L R, LFE
Частота : 48,0 КГц
Частота кадров : 31,250 кадров/сек (1536 spf)
Метод сжатия : С потерями
Размер потока : 227 Мбайт (16%)
Выравнивание : Разделение по промежуткам
Продолжительность промежутка : 40 мс. (1,00 видеокадр)
Время предзагрузки промежутка : 500 мс.

Скриншоты

[Цитировать]



Показать сообщения:    

Текущее время: 06-Дек 17:05

Часовой пояс: UTC + 3


Вы не можете начинать темы
Вы не можете отвечать на сообщения
Вы не можете редактировать свои сообщения
Вы не можете удалять свои сообщения
Вы не можете голосовать в опросах
Вы не можете прикреплять файлы к сообщениям
Вы не можете скачивать файлы

!ВНИМАНИЕ!
Сайт не предоставляет электронные версии произведений, а занимается лишь коллекционированием и каталогизацией ссылок, присылаемых и публикуемых на форуме нашими читателями. Если вы являетесь правообладателем какого-либо представленного материала и не желаете, чтобы ссылка на него находилась в нашем каталоге, свяжитесь с нами, и мы незамедлительно удалим ее. Файлы для обмена на трекере предоставлены пользователями сайта, и администрация не несет ответственности за их содержание. Просьба не заливать файлы, защищенные авторскими правами, а также файлы нелегального содержания!