[ Сегодня идет свободное скачивание без начисления Download ]


Статистика раздачи
Нет
 
   
 
Top  
 
 
Экстрасенсы / Solace Год выпуска: 2015
Страна: США
Производство: Eden Rock Media, FilmNation Entertainment, Flynn Picture Company, New Line Cinema, Silver Reel, Supersensory, Venture Forth
Жанр: триллер, драма, криминал, детектив
Режиссёр: Афонсо Пойарт
В ролях: Джеффри Дин Морган, Колин Фаррелл, Энтони Хопкинс, Эбби Корниш, Марли Шелтон, Джанин Тёрнер, Ксандер Беркли, Кенни Джонсон, Хосе Пабло Кантилльо, Джошуа Клоуз
Перевод: Профессиональный (полное дублирование) [iTunes]
Субтитры: Нет
Описание: Джон Клэнси, экстрасенс, много раз помогавший ФБР в расследованиях неразрешимых преступлений, сталкивается с самым опасным делом в своей жизни. Его способность видеть прошлое оказывается бессильна перед новым противником — хладнокровным убийцей, который способен предвидеть будущее. Теперь, чтобы остановить серию убийств, Джон должен вступить в неравную схватку с расчётливым маньяком и найти способ загнать в ловушку того, кто всегда на десять шагов впереди. сэмплПремьера (мир): 3 сентября 2015, ...
Премьера (РФ): 31 марта 2016, «Вольга»
Качество: HDRip
Продолжительность: 01:41:12
Формат: AVI
Видео кодек: XviD
Аудио кодек: AC3
Видео: 720x304 (2.35:1), 23.976 fps, XviD build 50 ~1668 kbps avg, 0.318 bit/pixel
Аудио / Русский: 48 kHz, AC3 Dolby Digital, 3/2 (L,C,R,l,r) + LFE ch, ~384.00 kbps avg

Отчет MI

Eksstrassensy.2O16.D.HDRip.1.46Gb.avi
Format : AVI
Format/Info : Audio Video Interleave
File size : 1.46 GiB
Duration : 1h 41mn
Overall bit rate : 2 061 Kbps
Writing application : VirtualDubMod 1.5.10.2 (build 2540/release)
Writing library : VirtualDubMod build 2540/release
Video
ID : 0
Format : MPEG-4 Visual
Format profile : Advanced Simple@L5
Format settings, BVOP : 2
Format settings, QPel : No
Format settings, GMC : No warppoints
Format settings, Matrix : Custom
Codec ID : XVID
Codec ID/Hint : XviD
Duration : 1h 41mn
Bit rate : 1 668 Kbps
Width : 720 pixels
Height : 304 pixels
Display aspect ratio : 2.35:1
Frame rate : 23.976 fps
Color space : YUV
Chroma subsampling : 4:2:0
Bit depth : 8 bits
Scan type : Progressive
Compression mode : Lossy
Bits/(Pixel*Frame) : 0.318
Stream size : 1.18 GiB (81%)
Writing library : XviD 1.2.1 (UTC 2008-12-04)
Audio
ID : 1
Format : AC-3
Format/Info : Audio Coding 3
Mode extension : CM (complete main)
Format settings, Endianness : Big
Codec ID : 2000
Duration : 1h 41mn
Bit rate mode : Constant
Bit rate : 384 Kbps
Channel(s) : 6 channels
Channel positions : Front: L C R, Side: L R, LFE
Sampling rate : 48.0 KHz
Bit depth : 16 bits
Compression mode : Lossy
Stream size : 278 MiB (19%)
Alignment : Split accross interleaves
Interleave, duration : 42 ms (1.00 video frame)
Interleave, preload duration : 500 ms

Скриншоты

[Цитировать]



Показать сообщения:    

Текущее время: 18-Янв 11:02

Часовой пояс: UTC + 3


Вы не можете начинать темы
Вы не можете отвечать на сообщения
Вы не можете редактировать свои сообщения
Вы не можете удалять свои сообщения
Вы не можете голосовать в опросах
Вы не можете прикреплять файлы к сообщениям
Вы не можете скачивать файлы

!ВНИМАНИЕ!
Сайт не предоставляет электронные версии произведений, а занимается лишь коллекционированием и каталогизацией ссылок, присылаемых и публикуемых на форуме нашими читателями. Если вы являетесь правообладателем какого-либо представленного материала и не желаете, чтобы ссылка на него находилась в нашем каталоге, свяжитесь с нами, и мы незамедлительно удалим ее. Файлы для обмена на трекере предоставлены пользователями сайта, и администрация не несет ответственности за их содержание. Просьба не заливать файлы, защищенные авторскими правами, а также файлы нелегального содержания!