[ Сегодня идет свободное скачивание без начисления Download ]


Статистика раздачи
Нет
 
   
 
Top  
 
 
И грянул шторм / The Finest Hours «32 survivors, room for 12» Год выпуска: 2016
Страна: США
Производство: Bergsten Music, Walt Disney Pictures, Whitaker Entertainment
Жанр: боевик, триллер, драма, история
Режиссёр: Крэйг Гиллеспи
В ролях: Крис Пайн, Кейси Аффлек, Бен Фостер, Эрик Бана, Холлидей Грейнджер, Джон Ортис, Кайл Галлнер, Джон Магаро, Грэм МакТавиш, Майкл Рэймонд-Джеймс, Бо Напп, Джош Стюарт, Абрахам Бенруби, Кейнан Лонсдейл, Рэйчел Броснахэн, Бенжамин Колдык, Мэттью Мехер, Джесси Габбар, Александр Кук, Дэнни Коннелли
Перевод: Профессиональный (полное дублирование) [Чистый звук]
Субтитры: Нет
Описание: Сюжет фильма основан на реальных событиях, произошедших в 1952 году, когда сотрудники береговой охраны в самый разгар шторма, используя деревянные моторные лодки, пытались спасти экипаж двух нефтяных танкеров. сэмплПремьера (мир): 27 января 2016, ...
Премьера (РФ): 4 февраля 2016, «WDSSPR»
Качество: WEB-DLRip
Продолжительность: 01:57:17
Формат: AVI
Видео кодек: XviD
Аудио кодек: AC3
Видео: 720x304 (2.35:1), 23.976 fps, XviD build 73 ~1321 kbps avg, 0.252 bit/pixel
Аудио : 48 kHz, AC3 Dolby Digital, 3/2 (L,C,R,l,r) + LFE ch, ~384.00 kbps avg

Отчет MI

I.grjanul.shtorm.2016.D.WEB-DLRip_by_Twi7ter.avi
Format : AVI
Format/Info : Audio Video Interleave
File size : 1.40 GiB
Duration : 1h 57mn
Overall bit rate : 1 714 Kbps
Movie name : I.grjanul.shtorm.2016.D.WEB-DLRip_by_Twi7ter
Director : Twi7ter
Genre : Action/Thriller/Drama/History
Writing application : VirtualDubMod 1.5.10.3 (build 2550/release)
Original source form/Name : Movie
Video
ID : 0
Format : MPEG-4 Visual
Format profile : Advanced Simple@L5
Format settings, BVOP : 1
Format settings, QPel : No
Format settings, GMC : No warppoints
Format settings, Matrix : Default (MPEG)
Codec ID : XVID
Codec ID/Hint : XviD
Duration : 1h 57mn
Bit rate : 1 321 Kbps
Width : 720 pixels
Height : 304 pixels
Display aspect ratio : 2.35:1
Frame rate : 23.976 fps
Color space : YUV
Chroma subsampling : 4:2:0
Bit depth : 8 bits
Scan type : Progressive
Compression mode : Lossy
Bits/(Pixel*Frame) : 0.252
Stream size : 1.08 GiB (77%)
Writing library : XviD 1.2.1 (UTC 2008-12-04)
Audio
ID : 1
Format : AC-3
Format/Info : Audio Coding 3
Mode extension : CM (complete main)
Format settings, Endianness : Big
Codec ID : 2000
Duration : 1h 57mn
Bit rate mode : Constant
Bit rate : 384 Kbps
Channel(s) : 6 channels
Channel positions : Front: L C R, Side: L R, LFE
Sampling rate : 48.0 KHz
Bit depth : 16 bits
Compression mode : Lossy
Stream size : 322 MiB (22%)
Alignment : Split accross interleaves
Interleave, duration : 42 ms (1.00 video frame)
Interleave, preload duration : 500 ms

Скриншоты

[Цитировать]



Показать сообщения:    

Текущее время: 09-Дек 12:43

Часовой пояс: UTC + 3


Вы не можете начинать темы
Вы не можете отвечать на сообщения
Вы не можете редактировать свои сообщения
Вы не можете удалять свои сообщения
Вы не можете голосовать в опросах
Вы не можете прикреплять файлы к сообщениям
Вы не можете скачивать файлы

!ВНИМАНИЕ!
Сайт не предоставляет электронные версии произведений, а занимается лишь коллекционированием и каталогизацией ссылок, присылаемых и публикуемых на форуме нашими читателями. Если вы являетесь правообладателем какого-либо представленного материала и не желаете, чтобы ссылка на него находилась в нашем каталоге, свяжитесь с нами, и мы незамедлительно удалим ее. Файлы для обмена на трекере предоставлены пользователями сайта, и администрация не несет ответственности за их содержание. Просьба не заливать файлы, защищенные авторскими правами, а также файлы нелегального содержания!