[ Today is free to download without increasing Download ]

DL-List and Torrent activity
Здравствуй, папа, Новый год / Daddy's Home «Dad vs step-dad» Год выпуска: 2015
Страна: США
Производство: Gary Sanchez Productions, Good Universe, Paramount Pictures
Жанр: Комедия
Режиссёр: Шон Андерс
В ролях: Уилл Феррелл, Марк Уолберг, Линда Карделлини, Томас Хейден Чёрч, Скарлет Эстевез, Оуэн Ваккаро, Бобби Каннавейл, Хэннибал Бёресс, Билл Бёрр, Джейми Денбо, Марк Л. Янг, Мэттью Пол Мартинес, Дэйв Дэвис, Джеймс Хэрлон Палмер, Райли Корбин, ЛаДжесси Смит, Билли Джонстон, Оливия Рени Дюпепе, Билли Слотер, ЛаМоника Гаррет
Перевод: Профессиональный (полное дублирование) [BD CEE]
Субтитры: Нет
Описание: Добрейший семьянин, топ-менеджер крупной радиостанции, очень старается стать самым лучшим папочкой для своих приемных детей. Но ребята не в восторге от его сиропных воспитательных методов. Ситуация осложняется, когда приезжает родной отец детей, бунтарь и тунеядец. Папашам предстоит выяснить, кто в доме хозяин. Премьера (мир): 9 декабря 2015, ...
Премьера (РФ): 7 января 2016, «Централ Партнершип»
Качество: HDRip
Продолжительность: 01:36:01
Формат: AVI
Видео кодек: XviD
Аудио кодек: АС3
Видео: 720x400 (1.80:1), 23.976 fps, XviD build 67 ~1645 kbps avg, 0.238 bit/pixel
Аудио : 48 kHz, AC3 Dolby Digital, 3/2 (L,C,R,l,r) + LFE ch, ~448 kbps avg

Отчет MI

Здравствуй.папа.Новый год.2O15.D.HDRip.avi
Format : AVI
Format/Info : Audio Video Interleave
File size : 1.41 GiB
Duration : 1h 36mn
Overall bit rate : 2 103 Kbps
Writing application : VirtualDubMod | www.virtualdub-fr.org || (build 2550/release)
Writing library : VirtualDubMod build 2550/release
ID : 0
Format : MPEG-4 Visual
Format profile : Advanced Simple@L5
Format settings, BVOP : 2
Format settings, QPel : No
Format settings, GMC : No warppoints
Format settings, Matrix : Custom
Codec ID : XVID
Codec ID/Hint : XviD
Duration : 1h 36mn
Bit rate : 1 645 Kbps
Width : 720 pixels
Height : 400 pixels
Display aspect ratio : 16:9
Frame rate : 23.976 fps
Color space : YUV
Chroma subsampling : 4:2:0
Bit depth : 8 bits
Scan type : Progressive
Compression mode : Lossy
Bits/(Pixel*Frame) : 0.238
Stream size : 1.10 GiB (78%)
Writing library : XviD 67
ID : 1
Format : AC-3
Format/Info : Audio Coding 3
Mode extension : CM (complete main)
Format settings, Endianness : Big
Codec ID : 2000
Duration : 1h 36mn
Bit rate mode : Constant
Bit rate : 448 Kbps
Channel(s) : 6 channels
Channel positions : Front: L C R, Side: L R, LFE
Sampling rate : 48.0 KHz
Bit depth : 16 bits
Compression mode : Lossy
Stream size : 308 MiB (21%)
Alignment : Split accross interleaves
Interleave, duration : 42 ms (1.00 video frame)
Interleave, preload duration : 500 msiler



Display posts:    

Current time is: 28-Oct 01:41

All times are UTC + 3

You cannot post new topics in this forum
You cannot reply to topics in this forum
You cannot edit your posts in this forum
You cannot delete your posts in this forum
You cannot vote in polls in this forum
You cannot attach files in this forum
You cannot download files in this forum

The site does not give electronic versions of products, and is engaged only in a collecting and cataloguing of the references sent and published at a forum by our readers. If you are the legal owner of any submitted material and do not wish that the reference to it was in our catalogue, contact us and we shall immediately remove her. Files for an exchange on tracker are given by users of a site, and the administration does not bear the responsibility for their maintenance. The request to not fill in the files protected by copyrights, and also files of the illegal maintenance!