[ Сегодня идет свободное скачивание без начисления Download ]


Статистика раздачи
Скачал: [ 1 ]
 
   
 
Top  
 
 
Пальмы в снегу / Palmeras en la nieve ♦ Год выпуска: 2015
♦ Страна: Испания
♦ Производство: Atresmedia Cine, Dynamo, Nostromo Pictures
♦ Жанр: Мелодрама, драма
♦ Режиссёр: Фернандо Гонзалез Молина
♦ В ролях: Марио Касас, Адриана Угарте, Макарена Гарсия, Ален Эрнандес, Берта Васкес, Джедже Апали, Даниэль Грао, Фернандо Кайо, Сельсо Бугальо
♦ Перевод: Любительский (двухголосый закадровый)
♦ Субтитры: Нет
♦ Описание: Это история о большой любви, связи времен и поколений. Красавица Кларенс живет в холодных горах. Однажды она находит загадочное письмо и решает узнать правду о прошлом своего отца. Девушка отправляется на остров Фернандо-По и как будто попадает в рай. Она идет по следам семейных тайн, где есть и запретная любовь, и предательство, и великие события, ставшие частью мировой истории.
♦ Доп инфо: Присутствуют вставки голосовой и текстовой рекламы! ♦ Качество: HDRip
♦ Продолжительность: 02:45:36
♦ Формат: AVI
♦ Видео кодек: XviD
♦ Аудио кодек: AC-3
♦ Видео: 720x304 (2.37:1), 23.976 fps, XviD build 50 ~1114 kbps avg, 0.212 bit/pixel
♦ Аудио: 48 kHz, AC3 Dolby Digital, 2/0 (L,R) ch, ~128.00 kbps avg
♦ Дата премьеры (мир): 9 декабря 2015
♦ Дата премьеры (РФ): 7 апреля 2016, «Capella Film»

MediaInfo:

Общее
Полное имя : E:\Kaztorka\Palmi.v.SneGU.2O16.DVO.HDRip.14OOMB_KOSHERA.avi
Формат : AVI
Формат/Информация : Audio Video Interleave
Размер файла : 1,37 Гбайт
Продолжительность : 2 ч. 45 м.
Общий поток : 1182 Кбит/сек
Программа кодирования : VirtualDubMod 1.5.10.2 (build 2540/release)
Библиотека кодирования : VirtualDubMod build 2540/release
Видео
Идентификатор : 0
Формат : MPEG-4 Visual
Идентификатор кодека : XVID
Идентификатор кодека/Подсказка : XviD
Продолжительность : 2 ч. 45 м.
Продолжительность оригинала : 1 ч. 14 м.
Битрейт : 1114 Кбит/сек
Ширина : 720 пикселей
Высота : 304 пикселя
Соотношение сторон : 2,35:1
Частота кадров : 23,976 кадра/сек
Цветовое пространство : YUV
Субдискретизация насыщенности : 4:2:0
Метод сжатия : С потерями
Бит/(Пиксели*Кадры) : 0.212
Размер потока : 593 Мбайт (42%)
Аудио
Идентификатор : 1
Формат : AC-3
Формат/Информация : Audio Coding 3
Идентификатор кодека : 2000
Продолжительность : 2 ч. 45 м.
Продолжительность оригинала : 1 ч. 14 м.
Вид битрейта : Постоянный
Битрейт : 128 Кбит/сек
Каналы : 2 канала
Частота : 48,0 КГц
Метод сжатия : С потерями
Размер потока : 68,2 Мбайт (5%)
Выравнивание : Соединение по промежуткам
Продолжительность промежутка : 42 мс. (1,00 видеокадр)
Время предзагрузки промежутка : 500 мс.

Скриншоты

[Цитировать]



Показать сообщения:    

Текущее время: 06-Дек 03:55

Часовой пояс: UTC + 3


Вы не можете начинать темы
Вы не можете отвечать на сообщения
Вы не можете редактировать свои сообщения
Вы не можете удалять свои сообщения
Вы не можете голосовать в опросах
Вы не можете прикреплять файлы к сообщениям
Вы не можете скачивать файлы

!ВНИМАНИЕ!
Сайт не предоставляет электронные версии произведений, а занимается лишь коллекционированием и каталогизацией ссылок, присылаемых и публикуемых на форуме нашими читателями. Если вы являетесь правообладателем какого-либо представленного материала и не желаете, чтобы ссылка на него находилась в нашем каталоге, свяжитесь с нами, и мы незамедлительно удалим ее. Файлы для обмена на трекере предоставлены пользователями сайта, и администрация не несет ответственности за их содержание. Просьба не заливать файлы, защищенные авторскими правами, а также файлы нелегального содержания!