[ Сегодня идет свободное скачивание без начисления Download ]


Статистика раздачи
Нет
 
   
 
Top  
 
 
Экстрасенсы / Solace Год выпуска: 2015
Страна: США
Производство: Eden Rock Media, FilmNation Entertainment, Flynn Picture Company, New Line Cinema, Silver Reel, Supersensory, Venture Forth
Жанр: триллер, драма, криминал, детектив
Режиссёр: Афонсо Пойарт
В ролях: Джеффри Дин Морган, Колин Фаррелл, Энтони Хопкинс, Эбби Корниш, Марли Шелтон, Джанин Тёрнер, Ксандер Беркли, Кенни Джонсон, Хосе Пабло Кантилльо, Джошуа Клоуз
Перевод: Профессиональный (полное дублирование) [iTunes]
Субтитры: Нет
Описание: Джон Клэнси, экстрасенс, много раз помогавший ФБР в расследованиях неразрешимых преступлений, сталкивается с самым опасным делом в своей жизни. Его способность видеть прошлое оказывается бессильна перед новым противником — хладнокровным убийцей, который способен предвидеть будущее. Теперь, чтобы остановить серию убийств, Джон должен вступить в неравную схватку с расчётливым маньяком и найти способ загнать в ловушку того, кто всегда на десять шагов впереди. сэмплПремьера (мир): 3 сентября 2015, ...
Премьера (РФ): 31 марта 2016, «Вольга»
Качество: HDRip
Продолжительность: 01:41:12
Формат: AVI
Видео кодек: XviD
Аудио кодек: AC3
Видео: 688x288 (2.39:1), 23.976 fps, XviD build 73 ~889 kbps avg, 0.19 bit/pixel
Аудио: 48 kHz, MPEG Layer 3, 2 ch, ~128.00 kbps avg

Отчет MI

Полное имя : D:\Downloads\Solace.2015.HDRip.745MB.avi
Формат : AVI
Формат/Информация : Audio Video Interleave
Размер файла : 744 MiB
Продолжительность : 1h 41mn
Общий поток : 1 027 Kbps
Программа кодирования : VirtualDubMod 1.5.10.3 | www.virtualdub-fr.org || (build 2550/release)
Библиотека кодирования : VirtualDubMod build 2550/release
Видео
Идентификатор : 0
Формат : MPEG-4 Visual
Профиль формата : Advanced Simple@L5
Параметр BVOP формата : 1
Параметр QPel формата : No
Параметр GMC формата : No warppoints
Параметр матрицы формата : Custom
Идентификатор кодека : XVID
Идентификатор кодека/Подсказка : XviD
Продолжительность : 1h 41mn
Битрейт : 890 Kbps
Ширина : 688 pixels
Высота : 288 pixels
Соотношение сторон : 2.40:1
Частота кадров : 23.976 fps
Цветовое пространство : YUV
Субдискретизация насыщенности : 4:2:0
Битовая глубина : 8 bits
Тип развёртки : Progressive
Метод сжатия : Lossy
Бит/(Пиксели*Кадры) : 0.187
Размер потока : 644 MiB (87%)
Библиотека кодирования : XviD 73
Аудио
Идентификатор : 1
Формат : MPEG Audio
Версия формата : Version 1
Профиль формата : Layer 3
Идентификатор кодека : 55
Идентификатор кодека/Подсказка : MP3
Продолжительность : 1h 41mn
Вид битрейта : Constant
Битрейт : 128 Kbps
Каналы : 2 channels
Частота : 48.0 KHz
Метод сжатия : Lossy
Размер потока : 92.7 MiB (12%)
Выравнивание : Aligned on interleaves
Продолжительность промежутка : 42 ms (1.00 video frame)
Время предзагрузки промежутка : 504 ms
Библиотека кодирования : LAME3.99r
Настройки программы : -m s -V 4 -q 2 -lowpass 17 -b 128

Скриншоты

[Цитировать]



Показать сообщения:    

Текущее время: 02-Дек 21:04

Часовой пояс: UTC + 3


Вы не можете начинать темы
Вы не можете отвечать на сообщения
Вы не можете редактировать свои сообщения
Вы не можете удалять свои сообщения
Вы не можете голосовать в опросах
Вы не можете прикреплять файлы к сообщениям
Вы не можете скачивать файлы

!ВНИМАНИЕ!
Сайт не предоставляет электронные версии произведений, а занимается лишь коллекционированием и каталогизацией ссылок, присылаемых и публикуемых на форуме нашими читателями. Если вы являетесь правообладателем какого-либо представленного материала и не желаете, чтобы ссылка на него находилась в нашем каталоге, свяжитесь с нами, и мы незамедлительно удалим ее. Файлы для обмена на трекере предоставлены пользователями сайта, и администрация не несет ответственности за их содержание. Просьба не заливать файлы, защищенные авторскими правами, а также файлы нелегального содержания!