[ Сегодня идет свободное скачивание без начисления Download ]


Статистика раздачи
Нет
 
   
 
Top  
 
 
Мой парень – киллер / Mr. Right« They make a killer couple »ஜ════════════ஜ۩۞۩ஜ════════════ஜ Год выпуска: 2015
Страна: США
Производство: 3311 Productions
Жанр: боевик, мелодрама, комедия
Режиссер: Пако Кабесас / Paco Cabezas
В ролях: Сэм Рокуэлл, Анна Кендрик, Тим Рот, Джеймс Рэнсон, Энсон Маунт, Майкл Эклунд, RZA, Кэти Нехра, Джейден Кейн, Дуглас М. Гриффин
Перевод: Любительский (многоголосый, закадровый), Оригинал (английский)
Озвучка: Студия "RecentFilms"
Субтитры: нет
Описание: -...Кендрик сыграет женщину, которой очень не везло с мужчинами. И, конечно, она несказанно радуется, когда ей попадается парень, подходящий по всем параметрам. Но тут начинаются проблемы. Ее идеал оказывается бывшим киллером, и его прошлое однажды вновь заявляет о себе, причем не самым приятным образом. И едва зародившиеся отношения начинают подвергаться серьезным испытаниям...-

Примечание: Релиз без рекламы.
Качество: WEB-DLRip
Продолжительность: 01:35:24
Формат: AVI
Видео кодек: XviD
Аудио кодек: AC3
Видео: 720x304 (2.35:1), 23.976 fps, XviD MPEG-4 ~1597 kbps avg, 0.30 bit/pixel
Аудио: 48 kHz, AC3 Dolby Digital, 2/0 (L,R) ch, ~192 kbps | Русский
Аудио: 48 kHz, AC3 Dolby Digital, 3/2 (L,C,R,l,r) + LFE ch, ~384 kbps | Английский
премьера (мир): 19 сентября 2015
премьера (РФ): 2 июня 2016, «Парадиз»

MediaInfo

Общее
Полное имя : E:DownloadsМой парень – киллер.2015.WEB-DLRip.avi
Формат : AVI
Формат/Информация : Audio Video Interleave
Размер файла : 1,46 Гбайт
Продолжительность : 1 ч. 35 м.
Общий поток : 2187 Кбит/сек
Программа кодирования : VirtualDubMod 1.5.10.3 | www.virtualdub-fr.org || (build 2550/release)
Видео
Идентификатор : 0
Формат : MPEG-4 Visual
Профиль формата : Simple@L5
Параметр BVOP формата : Нет
Параметр QPel формата : Нет
Параметр GMC формата : Без точки перехода
Параметр матрицы формата : Default (H.263)
Идентификатор кодека : XVID
Идентификатор кодека/Подсказка : XviD
Продолжительность : 1 ч. 35 м.
Битрейт : 1597 Кбит/сек
Ширина : 720 пикселей
Высота : 304 пикселя
Соотношение сторон : 2,40:1
Частота кадров : 23,976 кадра/сек
Цветовое пространство : YUV
Субдискретизация насыщенности : 4:2:0
Битовая глубина : 8 бит
Тип развёртки : Прогрессивная
Метод сжатия : С потерями
Бит/(Пиксели*Кадры) : 0.304
Размер потока : 1,06 Гбайт (73%)
Библиотека кодирования : Lavc56.13.100
Аудио #1
Идентификатор : 1
Формат : AC-3
Формат/Информация : Audio Coding 3
Расширение режима : CM (complete main)
Параметр Endianness формата : Big
Идентификатор кодека : 2000
Продолжительность : 1 ч. 35 м.
Вид битрейта : Постоянный
Битрейт : 192 Кбит/сек
Каналы : 2 канала
Расположение каналов : Front: L R
Частота : 48,0 КГц
Метод сжатия : С потерями
Размер потока : 131 Мбайт (9%)
Выравнивание : Разделение по промежуткам
Продолжительность промежутка : 42 мс. (1,00 видеокадр)
Время предзагрузки промежутка : 500 мс.
Заголовок : Многоголоска
Аудио #2
Идентификатор : 2
Формат : AC-3
Формат/Информация : Audio Coding 3
Расширение режима : CM (complete main)
Параметр Endianness формата : Big
Идентификатор кодека : 2000
Продолжительность : 1 ч. 35 м.
Вид битрейта : Постоянный
Битрейт : 384 Кбит/сек
Каналы : 6 каналов
Расположение каналов : Front: L C R, Side: L R, LFE
Частота : 48,0 КГц
Метод сжатия : С потерями
Размер потока : 262 Мбайт (18%)
Выравнивание : Соединение по промежуткам
Продолжительность промежутка : 42 мс. (1,00 видеокадр)
Время предзагрузки промежутка : 512 мс.
Заголовок : Оригинал

Скриншоты

[Цитировать]



Показать сообщения:    

Текущее время: 09-Дек 16:37

Часовой пояс: UTC + 3


Вы не можете начинать темы
Вы не можете отвечать на сообщения
Вы не можете редактировать свои сообщения
Вы не можете удалять свои сообщения
Вы не можете голосовать в опросах
Вы не можете прикреплять файлы к сообщениям
Вы не можете скачивать файлы

!ВНИМАНИЕ!
Сайт не предоставляет электронные версии произведений, а занимается лишь коллекционированием и каталогизацией ссылок, присылаемых и публикуемых на форуме нашими читателями. Если вы являетесь правообладателем какого-либо представленного материала и не желаете, чтобы ссылка на него находилась в нашем каталоге, свяжитесь с нами, и мы незамедлительно удалим ее. Файлы для обмена на трекере предоставлены пользователями сайта, и администрация не несет ответственности за их содержание. Просьба не заливать файлы, защищенные авторскими правами, а также файлы нелегального содержания!