[ Сегодня идет свободное скачивание без начисления Download ]


Статистика раздачи
Скачал: [ 1 ]
 
   
 
Top  
 
 
Незваные гости / Shut In« They should have left her alone »ஜ════════════ஜ۩۞۩ஜ════════════ஜ
Год выпуска: 2015
Страна: США
Производство: Black Fish Films
Жанр: ужасы, триллер, драма
Режиссер: Адам Шиндлер / Adam Schindler
В ролях: Рори Калкин, Летисия Хименез, Джек Кеси, Тимоти Т. МакКинни, Джошуа Микель, Бэт Рисграф, Мартин Старр
Перевод: Профессиональный (полное дублирование) [Чистый звук]
Субтитры: нет
Описание: -...Анна страдает от агорафобии, поэтому, когда трое преступников врываются в ее дом, она не может заставить себя выбежать на улицу. Злоумышленники пока не знают, что боязнь открытого пространства — не единственное расстройство психики девушки...-

Примечание: Присутствует реклама.
Качество: HDRip
Продолжительность: 01:26:45
Формат: AVI
Видео кодек: XviD
Аудио кодек: AC3
Видео: 720x304 (2.35:1), 23.976 fps, XviD build 50 ~1933 kbps avg, 0.353 bit/pixel
Аудио: 48 kHz, MPEG Layer 3, 2/0 (L,R) ch, ~320.00 kbps avg
премьера (мир): 12 июня 2015
премьера (РФ): 17 марта 2016, «Top Film Distribution»

MediaInfo

Shut.In.2015.D.HDRip.avi
Format : AVI
Format/Info : Audio Video Interleave
File size : 1.36 GiB
Duration : 1h 26mn
Overall bit rate : 2 263 Kbps
Movie name : rustorrens.info
Writing application : VirtualDubMod 1.5.10.3 | www.virtualdub-fr.org || (build 2550/release)
Video
ID : 0
Format : MPEG-4 Visual
Format profile : Advanced [email protected]
Format settings, BVOP : 2
Format settings, QPel : No
Format settings, GMC : No warppoints
Format settings, Matrix : Custom
Codec ID : XVID
Codec ID/Hint : XviD
Duration : 1h 26mn
Bit rate : 1 933 Kbps
Width : 720 pixels
Height : 304 pixels
Display aspect ratio : 2.35:1
Frame rate : 25.000 fps
Color space : YUV
Chroma subsampling : 4:2:0
Bit depth : 8 bits
Scan type : Progressive
Compression mode : Lossy
Bits/(Pixel*Frame) : 0.353
Stream size : 1.17 GiB (85%)
Writing library : XviD 1.2.1 (UTC 2008-12-04)
Audio
ID : 1
Format : MPEG Audio
Format version : Version 1
Format profile : Layer 3
Mode : Joint stereo
Codec ID : 55
Codec ID/Hint : MP3
Duration : 1h 26mn
Bit rate mode : Constant
Bit rate : 320 Kbps
Channel(s) : 2 channels
Sampling rate : 48.0 KHz
Compression mode : Lossy
Stream size : 198 MiB (14%)
Alignment : Aligned on interleaves
Interleave, duration : 40 ms (1.00 video frame)
Interleave, preload duration : 504 ms
Writing library : LAME3.99r
Encoding settings : -m j -V 4 -q 2 -lowpass 20.5

Скриншоты

[Цитировать]



Показать сообщения:    

Текущее время: 06-Дек 13:18

Часовой пояс: UTC + 3


Вы не можете начинать темы
Вы не можете отвечать на сообщения
Вы не можете редактировать свои сообщения
Вы не можете удалять свои сообщения
Вы не можете голосовать в опросах
Вы не можете прикреплять файлы к сообщениям
Вы не можете скачивать файлы

!ВНИМАНИЕ!
Сайт не предоставляет электронные версии произведений, а занимается лишь коллекционированием и каталогизацией ссылок, присылаемых и публикуемых на форуме нашими читателями. Если вы являетесь правообладателем какого-либо представленного материала и не желаете, чтобы ссылка на него находилась в нашем каталоге, свяжитесь с нами, и мы незамедлительно удалим ее. Файлы для обмена на трекере предоставлены пользователями сайта, и администрация не несет ответственности за их содержание. Просьба не заливать файлы, защищенные авторскими правами, а также файлы нелегального содержания!