[ Сегодня идет свободное скачивание без начисления Download ]


Статистика раздачи
Нет
 
   
 
Top  
 
 
Здравствуй, папа, Новый год / Daddy's Home «Dad vs step-dad» Год выпуска: 2015
Страна: США
Производство: Gary Sanchez Productions, Good Universe, Paramount Pictures
Жанр: Комедия
Режиссёр: Шон Андерс
В ролях: Уилл Феррелл, Марк Уолберг, Линда Карделлини, Томас Хейден Чёрч, Скарлет Эстевез, Оуэн Ваккаро, Бобби Каннавейл, Хэннибал Бёресс, Билл Бёрр, Джейми Денбо, Марк Л. Янг, Мэттью Пол Мартинес, Дэйв Дэвис, Джеймс Хэрлон Палмер, Райли Корбин, ЛаДжесси Смит, Билли Джонстон, Оливия Рени Дюпепе, Билли Слотер, ЛаМоника Гаррет
Перевод: Профессиональный (полное дублирование) [BD CEE]
Субтитры: Нет
Описание: Добрейший семьянин, топ-менеджер крупной радиостанции, очень старается стать самым лучшим папочкой для своих приемных детей. Но ребята не в восторге от его сиропных воспитательных методов. Ситуация осложняется, когда приезжает родной отец детей, бунтарь и тунеядец. Папашам предстоит выяснить, кто в доме хозяин. Премьера (мир): 9 декабря 2015, ...
Премьера (РФ): 7 января 2016, «Централ Партнершип»
Качество: HDRip
Продолжительность: 01:36:01
Формат: AVI
Видео кодек: XviD
Аудио кодек: МР3
Видео: 656х368 (16:9), 23,976 fps, XviD ~949 Kbps avg, 0.164 bit/pixel
Аудио : МР3, 48 kHz, 2 ch, ~128.00 kbps avg | русский | Профессиональный (полное дублирование)[Blu-ray CEE]

Отчет MI

Общее
Полное имя : D:TorrentsЗавершенныеDaddys.Home.2015.HDRip.MegaPeer.avi
Формат : AVI
Формат/Информация : Audio Video Interleave
Размер файла : 746 Мбайт
Продолжительность : 1 ч. 36 м.
Общий поток : 1086 Кбит/сек
Программа кодирования : VirtualDubMod 1.5.10.3 | www.virtualdub-fr.org || (build 2550/release)
Библиотека кодирования : VirtualDubMod build 2550/release
Видео
Идентификатор : 0
Формат : MPEG-4 Visual
Профиль формата : Advanced Simple@L5
Параметр BVOP формата : 1
Параметр QPel формата : Нет
Параметр GMC формата : Без точки перехода
Параметр матрицы формата : Выборочная
Идентификатор кодека : XVID
Идентификатор кодека/Подсказка : XviD
Продолжительность : 1 ч. 36 м.
Битрейт : 949 Кбит/сек
Ширина : 656 пикселей
Высота : 368 пикселей
Соотношение сторон : 16:9
Частота кадров : 23,976 (23976/1000) кадра/сек
Цветовое пространство : YUV
Субдискретизация насыщенности : 4:2:0
Битовая глубина : 8 бит
Тип развёртки : Прогрессивная
Метод сжатия : С потерями
Бит/(Пиксели*Кадры) : 0.164
Размер потока : 652 Мбайт (87%)
Библиотека кодирования : XviD 73
Аудио
Идентификатор : 1
Формат : MPEG Audio
Версия формата : Version 1
Профиль формата : Layer 3
Идентификатор кодека : 55
Идентификатор кодека/Подсказка : MP3
Продолжительность : 1 ч. 36 м.
Вид битрейта : Постоянный
Битрейт : 128 Кбит/сек
Каналы : 2 канала
Частота : 48,0 КГц
Метод сжатия : С потерями
Размер потока : 87,9 Мбайт (12%)
Выравнивание : Соединение по промежуткам
Продолжительность промежутка : 42 мс. (1,00 видеокадр)
Время предзагрузки промежутка : 504 мс.
Библиотека кодирования : LAME3.99r
Настройки программы : -m s -V 4 -q 2 -lowpass 17 -b 128

Скриншоты

[Цитировать]



Показать сообщения:    

Текущее время: 09-Дек 18:34

Часовой пояс: UTC + 3


Вы не можете начинать темы
Вы не можете отвечать на сообщения
Вы не можете редактировать свои сообщения
Вы не можете удалять свои сообщения
Вы не можете голосовать в опросах
Вы не можете прикреплять файлы к сообщениям
Вы не можете скачивать файлы

!ВНИМАНИЕ!
Сайт не предоставляет электронные версии произведений, а занимается лишь коллекционированием и каталогизацией ссылок, присылаемых и публикуемых на форуме нашими читателями. Если вы являетесь правообладателем какого-либо представленного материала и не желаете, чтобы ссылка на него находилась в нашем каталоге, свяжитесь с нами, и мы незамедлительно удалим ее. Файлы для обмена на трекере предоставлены пользователями сайта, и администрация не несет ответственности за их содержание. Просьба не заливать файлы, защищенные авторскими правами, а также файлы нелегального содержания!