[ Сегодня идет свободное скачивание без начисления Download ]


Статистика раздачи
Нет
 
   
 
Top  
 
 
Уроки выживания«Инструкция для начинающих героев» Год выпуска: 2016
Страна: Россия
Производство: KinoProGroup
Жанр: Комедия, семейный, приключения
Режиссёр: Андрей Томашевский
В ролях: Денис Никифоров, Илья Костюков, Екатерина Волкова, Александр Самойленко, Анастасия Черникова
Перевод: Не требуется[iTunes]
Субтитры: Нет
[b]Описание: Женя Аистов — брутальный красавец и лихой летчик. Он знает толк в жизни и женщинах, ценит свободу и… не любит детей. Когда-то он был командиром воздушного судна, а ныне управляет маленьким самолетом, доставляющим грузы на экзотический курорт. Однажды он терпит крушение на необитаемом острове. Но самое ужасное, что вместе с ним на острове оказывается 8-летний мальчишка, смешной и занудливый Коля. Так началась эта веселая «игра» на выживание… Дата премьеры (РФ): 24 марта 2016, «Парадиз»Качество: WEB-DLRip
Продолжительность: 01:22:44
Формат: AVI
Видео кодек: XviD
Аудио кодек: MP3
Видео: 688x288 (2.40:1), 25 fps, XviD build 73 ~1130 kbps avg, 0.228 bit/pixel
Аудио: 48 kHz, MPEG Layer 3, 2/0 (L,R) ch, ~128.00 kbps avg

MediaInfo

Uroki.vijivaniya.2016.WEBDLRip.745MB.MegaPeer.avi
Format : AVI
Format/Info : Audio Video Interleave
File size : 748 MiB
Duration : 1h 22mn
Overall bit rate : 1 265 Kbps
Video
ID : 0
Format : MPEG-4 Visual
Format profile : Advanced Simple@L5
Format settings, BVOP : 1
Format settings, QPel : No
Format settings, GMC : No warppoints
Format settings, Matrix : Custom
Codec ID : XVID
Codec ID/Hint : XviD
Duration : 1h 22mn
Bit rate : 1 130 Kbps
Width : 688 pixels
Height : 288 pixels
Display aspect ratio : 2.40:1
Frame rate : 25.000 fps
Color space : YUV
Chroma subsampling : 4:2:0
Bit depth : 8 bits
Scan type : Progressive
Compression mode : Lossy
Bits/(Pixel*Frame) : 0.228
Stream size : 669 MiB (89%)
Writing library : XviD 73
Audio
ID : 1
Format : MPEG Audio
Format version : Version 1
Format profile : Layer 3
Mode : Joint stereo
Codec ID : 55
Codec ID/Hint : MP3
Duration : 1h 22mn
Bit rate mode : Constant
Bit rate : 128 Kbps
Channel(s) : 2 channels
Sampling rate : 48.0 KHz
Compression mode : Lossy
Stream size : 75.8 MiB (10%)
Alignment : Aligned on interleaves
Interleave, duration : 160 ms (4.00 video frames)
Interleave, preload duration : 216 ms
Title : iTunes
Writing library : LAME3.99r
Encoding settings : -m j -V 4 -q 2 -lowpass 17 -b 128

Скриншоты

[Цитировать]



Показать сообщения:    

Текущее время: 10-Дек 08:05

Часовой пояс: UTC + 3


Вы не можете начинать темы
Вы не можете отвечать на сообщения
Вы не можете редактировать свои сообщения
Вы не можете удалять свои сообщения
Вы не можете голосовать в опросах
Вы не можете прикреплять файлы к сообщениям
Вы не можете скачивать файлы

!ВНИМАНИЕ!
Сайт не предоставляет электронные версии произведений, а занимается лишь коллекционированием и каталогизацией ссылок, присылаемых и публикуемых на форуме нашими читателями. Если вы являетесь правообладателем какого-либо представленного материала и не желаете, чтобы ссылка на него находилась в нашем каталоге, свяжитесь с нами, и мы незамедлительно удалим ее. Файлы для обмена на трекере предоставлены пользователями сайта, и администрация не несет ответственности за их содержание. Просьба не заливать файлы, защищенные авторскими правами, а также файлы нелегального содержания!