[ Сегодня идет свободное скачивание без начисления Download ]


Статистика раздачи
Нет
 
   
 
Top  
 
 
Образцовые семьи / Belles familles Год выпуска: 2015
Страна: Франция
Производство: ARP Sélection, TF1 Films Production, Canal+ [fr]
Жанр: Драма, комедия
Режиссёр: Жан-Поль Раппно
В ролях: Матье Амальрик, Марина Вакт, Жиль Леллуш, Джемма Чан, Николь Гарсия, Карин Вьяр, Гийом де Тонкедек, Андре Дюссолье, Клод Перрон, Жан-Мари Винлин
Перевод: Профессиональный (полное дублирование)[iTunes]
Субтитры: Отсутствуют
Описание: Стремясь отстоять интересы семьи, успешный бизнесмен Жером Варен начинает действовать как «сорви-голова». Он прерывает деловую поездку и отправляется в родовое поместье, ставшее причиной судебной тяжбы. Здесь, встречаясь с друзьями детства, герой оказывается в плену немыслимых интриг, в центре которых — женщина. В нее он влюбляется без оглядки…
Дата премьеры (мир): 25 августа 2015
Дата премьеры (РФ): 31 марта 2016, «Русский Репортаж»
Качество: HDRip
Продолжительность: 01:54:00
Формат: AVI
Видео кодек: XviD
Аудио кодек: AC3
Видео: 720x304 (2,35:1), 23,976 fps, Xvid ~1441 kbps avg, 0.275 bit/pixel
Аудио: 48 kHz, AC3, 6 ch, ~384.00 kbps avg | русский | Профессиональный (полное дублирование)[iTunes]

MediaInfo

Общее
Полное имя : D:\Torrents\Завершенные\Obrazcovye.semji.2015.D.HDRip.1.46GB.avi
Формат : AVI
Формат/Информация : Audio Video Interleave
Размер файла : 1,46 Гбайт
Продолжительность : 1 ч. 54 м.
Общий поток : 1834 Кбит/сек
Программа кодирования : VirtualDubMod 1.5.10.3 | www.virtualdub-fr.org || (build 2550/release)
Библиотека кодирования : VirtualDubMod build 2550/release
Видео
Идентификатор : 0
Формат : MPEG-4 Visual
Профиль формата : Advanced [email protected]
Параметр BVOP формата : 2
Параметр QPel формата : Нет
Параметр GMC формата : Без точки перехода
Параметр матрицы формата : Default (MPEG)
Идентификатор кодека : XVID
Идентификатор кодека/Подсказка : XviD
Продолжительность : 1 ч. 54 м.
Битрейт : 1441 Кбит/сек
Ширина : 720 пикселей
Высота : 304 пикселя
Соотношение сторон : 2,35:1
Частота кадров : 23,976 (23976/1000) кадра/сек
Цветовое пространство : YUV
Субдискретизация насыщенности : 4:2:0
Битовая глубина : 8 бит
Тип развёртки : Прогрессивная
Метод сжатия : С потерями
Бит/(Пиксели*Кадры) : 0.275
Размер потока : 1,15 Гбайт (79%)
Библиотека кодирования : XviD 1.2.1 (UTC 2008-12-04)
Аудио
Идентификатор : 1
Формат : AC-3
Формат/Информация : Audio Coding 3
Расширение режима : CM (complete main)
Параметр Endianness формата : Big
Идентификатор кодека : 2000
Продолжительность : 1 ч. 53 м.
Вид битрейта : Постоянный
Битрейт : 384 Кбит/сек
Каналы : 6 каналов
Расположение каналов : Front: L C R, Side: L R, LFE
Частота : 48,0 КГц
Частота кадров : 31,250 кадров/сек (1536 spf)
Метод сжатия : С потерями
Размер потока : 313 Мбайт (21%)
Выравнивание : Разделение по промежуткам
Продолжительность промежутка : 42 мс. (1,00 видеокадр)
Время предзагрузки промежутка : 500 мс.

Скриншоты

[Цитировать]



Показать сообщения:    

Текущее время: 05-Дек 05:33

Часовой пояс: UTC + 3


Вы не можете начинать темы
Вы не можете отвечать на сообщения
Вы не можете редактировать свои сообщения
Вы не можете удалять свои сообщения
Вы не можете голосовать в опросах
Вы не можете прикреплять файлы к сообщениям
Вы не можете скачивать файлы

!ВНИМАНИЕ!
Сайт не предоставляет электронные версии произведений, а занимается лишь коллекционированием и каталогизацией ссылок, присылаемых и публикуемых на форуме нашими читателями. Если вы являетесь правообладателем какого-либо представленного материала и не желаете, чтобы ссылка на него находилась в нашем каталоге, свяжитесь с нами, и мы незамедлительно удалим ее. Файлы для обмена на трекере предоставлены пользователями сайта, и администрация не несет ответственности за их содержание. Просьба не заливать файлы, защищенные авторскими правами, а также файлы нелегального содержания!