[ Сегодня идет свободное скачивание без начисления Download ]


Статистика раздачи
Нет
 
   
 
Top  
 
 
5-я волна / The 5th Wave«We Fight Back»♦ Год выпуска: 2016
♦ Страна: США
♦ Производство: Columbia Pictures, GK Films, Living Films, LStar Capital, Material Pictures
♦ Жанр: Фантастика, боевик, триллер, приключения
♦ Режиссёр: Дж. Блэйксон
♦ В ролях: Клои Грэйс Моретц, Ник Дж. Робинсон, Рон Ливингстон, Мэгги Сифф, Алекс Роу, Мария Белло, Майка Монро, Лив Шрайбер, Закари Артур, Тони Револори, Талита Бейтман, Мэттью Зук, Габриела Лопес, Бэйли Энн Бордерс, Дэйв Мальдонадо, Пол Райден, Э. Роджер Митчелл, Чармин Ли, Паркер Вьерлинг, Мэдисон Стэйнс
♦ Перевод: Профессиональный (полное дублирование) [iTunes]
♦ Субтитры: Русские (отключаемые) [UTF-8]
♦ Описание: Первая волна оставила за собой мглу. От второй успели убежать только самые везучие. Но едва ли можно назвать везучими тех, кто уцелел после третьей. А четвертая волна стерла все человеческие законы, взамен же установила свой, один-единственный: хочешь жить — не верь никому. И вот уже накатывает пятая волна…

♦ Качество: BDRip AVC
♦ Продолжительность: 01:52:22
Релиз от:
♦ Формат: MKV
♦ Видео кодек: AVC
♦ Аудио кодек: AC3
♦ Видео: 1024x428 (2.40:1), 23,976 fps, AVC ~ 1420 Кбит/сек avg, 0.135 bit/pixel
♦ Аудио: AC3, 48 kHz, 6 ch, ~384 kbps| русский | Профессиональный (полное дублирование) [iTunes]
♦ Дата премьеры (мир): 14 января 2016
♦ Дата премьеры (РФ): 21 января 2016, «WDSSPR»

MediaInfo:

Общее
Уникальный идентификатор : 175612700819108668188989652049905821946 (0x841DC6A22EF9E49F82F63304C0CFA8FA)
Полное имя : E:\Торренты новые\5_Volna.2016.RUS.BDRip.x264.by_potroks.mkv
Формат : Matroska
Версия формата : Version 4 / Version 2
Размер файла : 1,42 Гбайт
Продолжительность : 1 ч. 52 м.
Общий поток : 1806 Кбит/сек
Название фильма : The 5th Wave (2016)
Дата кодирования : UTC 2016-04-12 03:10:07
Программа кодирования : mkvmerge v5.9.0 ('On The Loose') built on Dec 15 2012 16:39:58
Библиотека кодирования : libebml v1.3.0 + libmatroska v1.4.0
Видео
Идентификатор : 1
Формат : AVC
Формат/Информация : Advanced Video Codec
Профиль формата : High@L4.1
Параметр CABAC формата : Да
Параметр ReFrames формата : 11 кадров
Идентификатор кодека : V_MPEG4/ISO/AVC
Продолжительность : 1 ч. 52 м.
Битрейт : 1420 Кбит/сек
Ширина : 1024 пикселя
Высота : 428 пикселей
Соотношение сторон : 2,40:1
Режим частоты кадров : Постоянный
Частота кадров : 23,976 кадра/сек
Цветовое пространство : YUV
Субдискретизация насыщенности : 4:2:0
Битовая глубина : 8 бит
Тип развёртки : Прогрессивная
Бит/(Пиксели*Кадры) : 0.135
Размер потока : 1,09 Гбайт (77%)
Заголовок : otroks
Библиотека кодирования : x264 core 146 r2538 121396c
Настройки программы : cabac=1 / ref=11 / deblock=1:-2:-2 / analyse=0x3:0x113 / me=umh / subme=11 / psy=1 / psy_rd=1.05:0.10 / mixed_ref=1 / me_range=48 / chroma_me=1 / trellis=2 / 8x8dct=1 / cqm=0 / deadzone=21,11 / fast_pskip=0 / chroma_qp_offset=-3 / threads=9 / lookahead_threads=2 / sliced_threads=0 / nr=0 / decimate=0 / interlaced=0 / bluray_compat=0 / constrained_intra=0 / bframes=12 / b_pyramid=2 / b_adapt=2 / b_bias=0 / direct=3 / weightb=1 / open_gop=0 / weightp=2 / keyint=240 / keyint_min=23 / scenecut=40 / intra_refresh=0 / rc_lookahead=60 / rc=2pass / mbtree=0 / bitrate=1420 / ratetol=1.0 / qcomp=0.70 / qpmin=0 / qpmax=69 / qpstep=4 / cplxblur=20.0 / qblur=0.5 / vbv_maxrate=14000 / vbv_bufsize=14000 / nal_hrd=none / filler=0 / ip_ratio=1.40 / pb_ratio=1.30 / aq=1:0.80
Язык : English
Default : Да
Forced : Нет
Аудио
Идентификатор : 2
Формат : AC-3
Формат/Информация : Audio Coding 3
Расширение режима : CM (complete main)
Параметр Endianness формата : Big
Идентификатор кодека : A_AC3
Продолжительность : 1 ч. 52 м.
Вид битрейта : Постоянный
Битрейт : 384 Кбит/сек
Каналы : 6 каналов
Расположение каналов : Front: L C R, Side: L R, LFE
Частота : 48,0 КГц
Частота кадров : 31,250 кадров/сек (1536 spf)
Метод сжатия : С потерями
Размер потока : 309 Мбайт (21%)
Заголовок : Dub | DD 5.1 @ 384 kbps - iTunes
Язык : Russian
Default : Да
Forced : Нет
Текст #1
Идентификатор : 3
Формат : UTF-8
Идентификатор кодека : S_TEXT/UTF8
Идентификатор кодека/Информация : UTF-8 Plain Text
Заголовок : Forced [potroks]
Язык : Russian
Default : Да
Forced : Нет
Текст #2
Идентификатор : 4
Формат : UTF-8
Идентификатор кодека : S_TEXT/UTF8
Идентификатор кодека/Информация : UTF-8 Plain Text
Заголовок : Forced [iTunes]
Язык : Russian
Default : Нет
Forced : Нет
Текст #3
Идентификатор : 5
Формат : UTF-8
Идентификатор кодека : S_TEXT/UTF8
Идентификатор кодека/Информация : UTF-8 Plain Text
Заголовок : iTunes
Язык : Russian
Default : Нет
Forced : Нет
Меню
00:00:00.000 : en:(01)00:00:00:000
00:03:48.561 : en:(02)00:03:48:561
00:09:05.836 : en:(03)00:09:05:836
00:16:01.335 : en:(04)00:16:01:335
00:20:46.036 : en:(05)00:20:46:036
00:28:43.430 : en:(06)00:28:43:430
00:37:41.968 : en:(07)00:37:41:968
00:45:50.956 : en:(08)00:45:50:956
00:54:19.714 : en:(09)00:54:19:714
00:59:47.709 : en:(10)00:59:47:709
01:06:01.749 : en:(11)01:06:01:749
01:13:06.131 : en:(12)01:13:06:131
01:18:13.230 : en:(13)01:18:13:230
01:25:02.263 : en:(14)01:25:02:263
01:32:21.160 : en:(15)01:32:21:160
01:43:07.431 : en:(16)01:43:07:431

Скриншоты

[Цитировать]



Показать сообщения:    

Текущее время: 09-Дек 03:08

Часовой пояс: UTC + 3


Вы не можете начинать темы
Вы не можете отвечать на сообщения
Вы не можете редактировать свои сообщения
Вы не можете удалять свои сообщения
Вы не можете голосовать в опросах
Вы не можете прикреплять файлы к сообщениям
Вы не можете скачивать файлы

!ВНИМАНИЕ!
Сайт не предоставляет электронные версии произведений, а занимается лишь коллекционированием и каталогизацией ссылок, присылаемых и публикуемых на форуме нашими читателями. Если вы являетесь правообладателем какого-либо представленного материала и не желаете, чтобы ссылка на него находилась в нашем каталоге, свяжитесь с нами, и мы незамедлительно удалим ее. Файлы для обмена на трекере предоставлены пользователями сайта, и администрация не несет ответственности за их содержание. Просьба не заливать файлы, защищенные авторскими правами, а также файлы нелегального содержания!