[ Сегодня идет свободное скачивание без начисления Download ]


Статистика раздачи
Нет
 
   
 
Top  
 
 
Крыша мираЭпизоды с 1 по 12 (из 20)Год выпуска: 2015
Страна: Россия
Производство: «Yellow, Black and White» и кинокомпания «Небо»
Жанр: Комедия
Режиссёр: Роман Фокин
В ролях: Алексей Бардуков, Илья Глинников, Ирина Старшенбаум, Николай Козак, Александр Робак, Ирина Темичева, Светлана Костюкова, Александр Андриенко, Александр Константинов, Андрей Щеткин, Алексей Гришин
Перевод: Не требуется
Субтитры: Нет
Описание: История трех молодых людей, волей случая оказавшихся вместе. И в очень хорошем месте — огромной квартире в самом центре Москвы с выходом на крышу и головокружительным видом на город. Герои решают открыть в квартире хостел — бюджетную гостиницу. У них есть все, чтобы преуспеть — организаторские способности одного, дизайнерский талант другого и, разумеется, сама квартира. Что из этого получится? Знают только они, ну и сварливый сосед — бывший прапорщик — который изо всех сил будет мешать этой бизнес-идее состояться.

СПИСОК ЭПИЗОДОВ:

1 серия
2 серия
3 серия
4 серия
5 серия
6 серия
7 серия
8 серия
9 серия
10 серия
Качество: WEB-DL 1080p
Продолжительность: по ~ 00:27:00
Формат: MKV
Видео кодек: MPEG-4 AVC
Аудио кодек: AC3
Свойства видео: 1920x1080 (16:9), 25 fps, MPEG-4 AVC ~4000 kbps avg, 0.077 bit/pixel
Свойства аудио: 48 kHz, AC3, 2 ch, ~192.00 kbps avg

MI

Общее
Уникальный идентификатор : 71529191349537608102262972378147763497 (0x35D0056A341D3F3910FA35E04014B529)
Полное имя : D:TorrentsЗавершенныеKrycha.myra.2016.WEB-DL.1080.Files-x1.Krycha.myra.2016.WEB-DL.1080.Files-x.mkv
Формат : Matroska
Версия формата : Version 4 / Version 2
Размер файла : 812 Мбайт
Продолжительность : 27 м.
Общий поток : 4195 Кбит/сек
Программа кодирования : Lavf56.25.101
Библиотека кодирования : Lavf56.25.101
Видео
Идентификатор : 1
Формат : AVC
Формат/Информация : Advanced Video Codec
Профиль формата : High@L4
Параметр CABAC формата : Да
Параметр ReFrames формата : 3 кадра
Идентификатор кодека : V_MPEG4/ISO/AVC
Продолжительность : 27 м.
Битрейт : 4000 Кбит/сек
Ширина : 1920 пикселей
Высота : 1080 пикселей
Соотношение сторон : 16:9
Режим частоты кадров : Постоянный
Частота кадров : 25,000 кадров/сек
Цветовое пространство : YUV
Субдискретизация насыщенности : 4:2:0
Битовая глубина : 8 бит
Тип развёртки : Прогрессивная
Бит/(Пиксели*Кадры) : 0.077
Размер потока : 758 Мбайт (93%)
Библиотека кодирования : x264 core 142 r2389 956c8d8
Настройки программы : cabac=1 / ref=3 / deblock=1:0:0 / analyse=0x3:0x133 / me=umh / subme=7 / psy=1 / psy_rd=1.00:0.00 / mixed_ref=1 / me_range=32 / chroma_me=1 / trellis=2 / 8x8dct=1 / cqm=0 / deadzone=21,11 / fast_pskip=1 / chroma_qp_offset=-2 / threads=12 / lookahead_threads=2 / sliced_threads=0 / nr=0 / decimate=1 / interlaced=0 / bluray_compat=0 / constrained_intra=0 / bframes=0 / weightp=0 / keyint=75 / keyint_min=26 / scenecut=40 / intra_refresh=0 / rc_lookahead=50 / rc=2pass / mbtree=0 / bitrate=4000 / ratetol=1.0 / qcomp=0.20 / qpmin=10 / qpmax=51 / qpstep=4 / cplxblur=20.0 / qblur=0.5 / vbv_maxrate=5000 / vbv_bufsize=5000 / nal_hrd=none / filler=0 / ip_ratio=1.40 / aq=1:1.00
Default : Да
Forced : Нет
Цветовой диапазон : Limited
Основные цвета : BT.709
Характеристики трансфера : BT.709
Коэффициенты матрицы : BT.709
Аудио
Идентификатор : 2
Формат : AC-3
Формат/Информация : Audio Coding 3
Расширение режима : CM (complete main)
Параметр Endianness формата : Big
Идентификатор кодека : A_AC3
Продолжительность : 27 м.
Вид битрейта : Постоянный
Битрейт : 192 Кбит/сек
Каналы : 2 канала
Расположение каналов : Front: L R
Частота : 44,1 КГц
Метод сжатия : С потерями
Размер потока : 37,2 Мбайт (5%)
Default : Да
Forced : Нет

Внимание! Раздача ведётся путём добавления новых серий;

При каждом добавлении создаётся новый торрент. Чтобы начать докачку новой серии, пользователям необходимо сделать следующее:
(1) остановить скачивание,
(2) удалить старый торрент у себя из клиента (старые серии удалять не надо),
(3) скачать новый торрент и запустить его у себя в клиенте вместо старого, при этом указать клиенту путь в старую папку куда и должно происходить скачивание новых серий.
Ваш клиент при этом должен произвести хеширование (проверку) старой папки (если не производит сам - помогите ему сделать это), и будет докачивать только те серии которых у вас ещё нет. Старые серии при этом не удаляются, а продолжают раздаваться!
Eсли вы уже удалили старые серии, то предотвратить повторную закачку старых серий можно, отжав галочку в соответствующих местах при запуске нового торрента. По возможности, желательно не удалять старые серии как можно дольше чтобы релизёр не столько продолжал раздавать старые серии, а смог сконцентрироваться на новых.

Скриншоты

[Цитировать]



Показать сообщения:    

Текущее время: 29-Апр 02:00

Часовой пояс: UTC + 6


Вы не можете начинать темы
Вы не можете отвечать на сообщения
Вы не можете редактировать свои сообщения
Вы не можете удалять свои сообщения
Вы не можете голосовать в опросах
Вы не можете прикреплять файлы к сообщениям
Вы не можете скачивать файлы

!ВНИМАНИЕ!
Сайт не предоставляет электронные версии произведений, а занимается лишь коллекционированием и каталогизацией ссылок, присылаемых и публикуемых на форуме нашими читателями. Если вы являетесь правообладателем какого-либо представленного материала и не желаете, чтобы ссылка на него находилась в нашем каталоге, свяжитесь с нами, и мы незамедлительно удалим ее. Файлы для обмена на трекере предоставлены пользователями сайта, и администрация не несет ответственности за их содержание. Просьба не заливать файлы, защищенные авторскими правами, а также файлы нелегального содержания!