[ Сегодня идет свободное скачивание без начисления Download ]


Статистика раздачи
Скачал: [ 1 ]
 
   
 
Top  
 
 
Двойник / The Assignment (1997) DVDRip Информация о фильме
Название: Двойник
Оригинальное название: The Assignment
Год выхода: 1997
Жанр: боевик, триллер, криминал
Режиссер: Кристиан Дюге / Christian Duguay
В ролях: Эйдан Куинн /Aidan Quinn/, Доналд Сазерленд /Donald Sutherland/, Бен Кингсли /Ben Kingsley/, Лилиана Коморовска /Liliana Komorowska/, Селин Бонье /Celine Bonnier/, Клаудиа Ферри /Claudia Ferri/, Власта Врана /Vlasta Vrana/, Вон Флорес /Von Flores/, Эл Уэксмэн /Al Waxman/...
О фильме:
Карлос Санчес, «Шакал». Многие годы этого имени было достаточно, чтобы вызвать страх у целой страны. Профессиональный террорист с холодным умом и безжалостным сердцем. Международный наемный убийца, который получал удовольствие, убивая невинных. Человек, от которого исходило зло и насилие.
Ему всегда удавалось уйти. 20 лет ФБР и Моссад считали его целью номер один. И каждый раз он ускользал — как привидение в ночи. До тех пор, пока не появился Аннибал Рамирес, офицер флота, любящий муж и отец, у которого нет ничего общего с Карлосом, кроме одного: он, как две капли воды, похож на него…

Страна: Канада
Студия: Allegro Film Productions V, Allegro Films, Canadian Film or Video Production Tax Credit Program
Продолжительность: 01:54:25
Перевод: Профессиональный (многоголосый закадровый), Авторский (одноголосый закадровый) Юрий Живов
Файл
Кодек: XviD
Качество: DVDRip
Видео: 704x400, 25,000 fps, XviD build 73 ~ 1437 kbps
Аудио 1: 48 kHz, Dolby Digital AC3 2.0, 192 kbps..........Профессиональный (многоголосый закадровый)
Аудио 2: 48 kHz, Dolby Digital AC3 2.0, 192 kbps..........Авторский (одноголосый закадровый) Юрий Живов

MI

Общее
Полное имя : Dvojnik.1997.DVDRip.avi
Формат : AVI
Формат/Информация : Audio Video Interleave
Размер файла : 1,47 Гбайт
Продолжительность : 1 ч. 54 м.
Общий поток : 1835 Кбит/сек
Программа кодирования : VirtualDubMod 1.5.10.2 (build 2542/release)
Библиотека кодирования : VirtualDubMod build 2542/release
Видео
Идентификатор : 0
Формат : MPEG-4 Visual
Профиль формата : Advanced Simple@L5
Параметр BVOP формата : 2
Параметр QPel формата : Нет
Параметр GMC формата : Без точки перехода
Параметр матрицы формата : Выборочная
Идентификатор кодека : XVID
Идентификатор кодека/Подсказка : XviD
Продолжительность : 1 ч. 54 м.
Битрейт : 1437 Кбит/сек
Ширина : 704 пикс.
Высота : 400 пикс.
Соотношение сторон : 16:9
Частота кадров : 25,000 кадр/сек
Цветовое пространство : YUV
Подвыборка цветности : 4:2:0
Битовая глубина : 8 бит
Тип развёртки : Прогрессивная
Метод сжатия : С потерями
Бит/(Пиксели*Кадры) : 0.204
Размер потока : 1,15 Гбайт (78%)
Библиотека кодирования : XviD 73
Аудио #1
Идентификатор : 1
Формат : AC-3
Формат/Информация : Audio Coding 3
Профиль формата : Dolby Digital
Расширение режима : CM (complete main)
Идентификатор кодека : 2000
Продолжительность : 1 ч. 54 м.
Вид битрейта : Постоянный
Битрейт : 192 Кбит/сек
Канал(ы) : 2 канала(ов)
Расположение каналов : Front: L R
Частота : 48,0 КГц
Битовая глубина : 16 бит
Метод сжатия : С потерями
Размер потока : 157 Мбайт (10%)
Выравнивание : Разделение по промежуткам
Продолжительность промежутка : 40 мс. (1,00 видеокадр)
Время предзагрузки промежутка : 500 ms
Аудио #2
Идентификатор : 2
Формат : AC-3
Формат/Информация : Audio Coding 3
Расширение режима : CM (complete main)
Идентификатор кодека : 2000
Продолжительность : 1 ч. 54 м.
Вид битрейта : Постоянный
Битрейт : 192 Кбит/сек
Канал(ы) : 2 канала(ов)
Расположение каналов : Front: L R
Частота : 48,0 КГц
Битовая глубина : 16 бит
Метод сжатия : С потерями
Размер потока : 157 Мбайт (10%)
Выравнивание : Разделение по промежуткам
Продолжительность промежутка : 40 мс. (1,00 видеокадр)
Время предзагрузки промежутка : 500 ms

Скриншоты

[Цитировать]



Показать сообщения:    

Текущее время: 10-Дек 04:11

Часовой пояс: UTC + 3


Вы не можете начинать темы
Вы не можете отвечать на сообщения
Вы не можете редактировать свои сообщения
Вы не можете удалять свои сообщения
Вы не можете голосовать в опросах
Вы не можете прикреплять файлы к сообщениям
Вы не можете скачивать файлы

!ВНИМАНИЕ!
Сайт не предоставляет электронные версии произведений, а занимается лишь коллекционированием и каталогизацией ссылок, присылаемых и публикуемых на форуме нашими читателями. Если вы являетесь правообладателем какого-либо представленного материала и не желаете, чтобы ссылка на него находилась в нашем каталоге, свяжитесь с нами, и мы незамедлительно удалим ее. Файлы для обмена на трекере предоставлены пользователями сайта, и администрация не несет ответственности за их содержание. Просьба не заливать файлы, защищенные авторскими правами, а также файлы нелегального содержания!