[ Сегодня идет свободное скачивание без начисления Download ]


Статистика раздачи
Нет
 
   
 
Top  
 
 
Образцовые семьи / Belles familles Год выпуска: 2015
Страна: Франция
Производство: ARP Sélection, TF1 Films Production, Canal+ [fr]
Жанр: Драма, комедия
Режиссёр: Жан-Поль Раппно
В ролях: Матье Амальрик, Марина Вакт, Жиль Леллуш, Джемма Чан, Николь Гарсия, Карин Вьяр, Гийом де Тонкедек, Андре Дюссолье, Клод Перрон, Жан-Мари Винлин
Перевод: Профессиональный (полное дублирование) [iTunes]
Субтитры: Отсутствуют
Описание: Стремясь отстоять интересы семьи, успешный бизнесмен Жером Варен начинает действовать как «сорви-голова». Он прерывает деловую поездку и отправляется в родовое поместье, ставшее причиной судебной тяжбы. Здесь, встречаясь с друзьями детства, герой оказывается в плену немыслимых интриг, в центре которых — женщина. В нее он влюбляется без оглядки…
Дата премьеры (мир): 25 августа 2015
Дата премьеры (РФ): 31 марта 2016, «Русский Репортаж»
Качество: HDRip
Продолжительность: 01:54:00
Формат: AVI
Видео кодек: XviD
Аудио кодек: AC3
Видео: 688x288 (2.40:1), 23.976 fps, XviD build 73 ~779 kbps avg, 0.164 bit/pixel
Аудио: 48 kHz, MPEG Layer 3, 2/0 (L,R) ch, ~128.00 kbps avg

MediaInfo

Belles.familles.2015.HDRip.745MB.MegaPeer.avi
Format : AVI
Format/Info : Audio Video Interleave
File size : 747 MiB
Duration : 1h 54mn
Overall bit rate : 916 Kbps
Writing application : VirtualDubMod 1.5.10.3 | www.virtualdub-fr.org || (build 2550/release)
Writing library : VirtualDubMod build 2550/release
Video
ID : 0
Format : MPEG-4 Visual
Format profile : Advanced [email protected]
Format settings, BVOP : 1
Format settings, QPel : No
Format settings, GMC : No warppoints
Format settings, Matrix : Custom
Codec ID : XVID
Codec ID/Hint : XviD
Duration : 1h 54mn
Bit rate : 779 Kbps
Width : 688 pixels
Height : 288 pixels
Display aspect ratio : 2.40:1
Frame rate : 23.976 fps
Color space : YUV
Chroma subsampling : 4:2:0
Bit depth : 8 bits
Scan type : Progressive
Compression mode : Lossy
Bits/(Pixel*Frame) : 0.164
Stream size : 635 MiB (85%)
Writing library : XviD 73
Audio
ID : 1
Format : MPEG Audio
Format version : Version 1
Format profile : Layer 3
Codec ID : 55
Codec ID/Hint : MP3
Duration : 1h 54mn
Bit rate mode : Constant
Bit rate : 128 Kbps
Channel(s) : 2 channels
Sampling rate : 48.0 KHz
Compression mode : Lossy
Stream size : 104 MiB (14%)
Alignment : Aligned on interleaves
Interleave, duration : 42 ms (1.00 video frame)
Interleave, preload duration : 504 ms
Writing library : LAME3.99r
Encoding settings : -m s -V 4 -q 2 -lowpass 17 -b 128

Скриншоты

[Цитировать]



Показать сообщения:    

Текущее время: 05-Дек 11:33

Часовой пояс: UTC + 3


Вы не можете начинать темы
Вы не можете отвечать на сообщения
Вы не можете редактировать свои сообщения
Вы не можете удалять свои сообщения
Вы не можете голосовать в опросах
Вы не можете прикреплять файлы к сообщениям
Вы не можете скачивать файлы

!ВНИМАНИЕ!
Сайт не предоставляет электронные версии произведений, а занимается лишь коллекционированием и каталогизацией ссылок, присылаемых и публикуемых на форуме нашими читателями. Если вы являетесь правообладателем какого-либо представленного материала и не желаете, чтобы ссылка на него находилась в нашем каталоге, свяжитесь с нами, и мы незамедлительно удалим ее. Файлы для обмена на трекере предоставлены пользователями сайта, и администрация не несет ответственности за их содержание. Просьба не заливать файлы, защищенные авторскими правами, а также файлы нелегального содержания!