[ Сегодня идет свободное скачивание без начисления Download ]


Статистика раздачи
Нет
 
   
 
Top  
 
 
Джейн берет ружье / Jane Got a Gun «She turned to her past to protect her family» Год выпуска: 2016
Страна: США
Производство: 1821 Pictures, Boies/Schiller Film Group, Handsomecharlie Films
Жанр: боевик, драма, вестерн
Режиссёр: Гэвин О’Коннор
В ролях: Натали Портман, Джоэл Эдгертон, Эван МакГрегор, Родриго Санторо, Ноа Эммерик, Бойд Холбрук, Алекс Манетт, Тодд Стэшвик, Джеймс Барнетт, Сэм Куинн
Перевод: Профессиональный (полное дублирование) [Чистый звук]
Субтитры: Нет
Описание: Головорезы МакКэна преследуют попытавшегося отбиться от банды Хэма. Изрешеченный пулями, он укрывается на ранчо своей красавицы-жены Джейн. Ей приходится обратиться за защитой к тому, кого она хотела бы видеть меньше всего, — к своему бывшему любовнику. Джейн нужно забыть прошлое, совладать с чувствами и стать сильной и бескомпромиссной, чтобы спасти семью от расправы банды наемников. сэмплПремьера (мир): 1 января 2016, ...
Премьера (РФ): 17 марта 2016, «Экспонента»
Качество: HDRip
Продолжительность: 01:57:17
Формат: AVI
Видео кодек: XviD
Аудио кодек: AC3
Видео: 720x304 (2.35:1), 23.976 fps, XviD build 73 ~925 kbps avg, 0.18 bit/pixel
Аудио : 48 kHz, MPEG Layer 3, 2/0 (L,R) ch, ~128.00 kbps avg

✘ MediaInfo ✘

Jane Got a Gun 2015_HDRip__[scarabey].avi
Format : AVI
Format/Info : Audio Video Interleave
File size : 745 MiB
Duration : 1h 37mn
Overall bit rate : 1 063 Kbps
Writing application : VirtualDubMod 1.5.10.2 (build 2540/release)
Writing library : VirtualDubMod build 2540/release
Video
ID : 0
Format : MPEG-4 Visual
Format profile : Advanced Simple@L5
Format settings, BVOP : 1
Format settings, QPel : No
Format settings, GMC : No warppoints
Format settings, Matrix : Custom
Codec ID : XVID
Codec ID/Hint : XviD
Duration : 1h 37mn
Bit rate : 926 Kbps
Width : 720 pixels
Height : 304 pixels
Display aspect ratio : 2.35:1
Frame rate : 23.976 fps
Color space : YUV
Chroma subsampling : 4:2:0
Bit depth : 8 bits
Scan type : Progressive
Compression mode : Lossy
Bits/(Pixel*Frame) : 0.176
Stream size : 649 MiB (87%)
Writing library : XviD 73
Audio
ID : 1
Format : MPEG Audio
Format version : Version 1
Format profile : Layer 3
Codec ID : 55
Codec ID/Hint : MP3
Duration : 1h 37mn
Bit rate mode : Constant
Bit rate : 128 Kbps
Channel(s) : 2 channels
Sampling rate : 48.0 KHz
Compression mode : Lossy
Stream size : 89.7 MiB (12%)
Alignment : Aligned on interleaves
Interleave, duration : 42 ms (1.00 video frame)
Interleave, preload duration : 504 ms
Writing library : LAME3.99r
Encoding settings : -m s -V 4 -q 2 -lowpass 17 -b 128

Скриншоты

/s1cffd039a99d879d27bda22e78869d753fb06606c.jpg" data-rel="lightcase:myCollection:slideshow">cf/s1cffd039a99d879d27bda22e78869d753fb06606c.jpg" class="light_img" title="Клик для увеличения">/s2cffd039a99d879d27bda22e78869d753fb06606c.jpg" data-rel="lightcase:myCollection:slideshow">cf/s2cffd039a99d879d27bda22e78869d753fb06606c.jpg" class="light_img" title="Клик для увеличения">/s3cffd039a99d879d27bda22e78869d753fb06606c.jpg" data-rel="lightcase:myCollection:slideshow">cf/s3cffd039a99d879d27bda22e78869d753fb06606c.jpg" class="light_img" title="Клик для увеличения">

[Цитировать]



Показать сообщения:    

Текущее время: 26-Фев 22:11

Часовой пояс: UTC + 3


Вы не можете начинать темы
Вы не можете отвечать на сообщения
Вы не можете редактировать свои сообщения
Вы не можете удалять свои сообщения
Вы не можете голосовать в опросах
Вы не можете прикреплять файлы к сообщениям
Вы не можете скачивать файлы

!ВНИМАНИЕ!
Сайт не предоставляет электронные версии произведений, а занимается лишь коллекционированием и каталогизацией ссылок, присылаемых и публикуемых на форуме нашими читателями. Если вы являетесь правообладателем какого-либо представленного материала и не желаете, чтобы ссылка на него находилась в нашем каталоге, свяжитесь с нами, и мы незамедлительно удалим ее. Файлы для обмена на трекере предоставлены пользователями сайта, и администрация не несет ответственности за их содержание. Просьба не заливать файлы, защищенные авторскими правами, а также файлы нелегального содержания!