[ Сегодня идет свободное скачивание без начисления Download ]


Статистика раздачи
Нет
 
   
 
Top  
 
 
Mумия / The Mummy«Death is only the beginning.»[gposter=right]http://torrentsclub.org/pictures/475afec1aa4ca3f84f...12.png[/gposter]
Год выпуска: 1999
Страна: США
Производство:Universal Pictures
Жанр: фэнтези, боевик, приключения
Режиссер: Стивен Соммерс / Stephen Sommers
В ролях:
Брендан Фрейзер (Richard 'Rick' O'Connell,), Рейчел Вайс (Evelyn Carnahan), Джон Ханна (Jonathan Carnahan), Арнольд Вослу (High Priest Imhotep), Кевин Дж. О’Коннор (Beni Gabor), Одед Фер (Ardeth Bay), Джонатан Хайд (Dr. Allen Chamberlain), Эрик Авари (Dr. Terrence Bey), Бернард Фокс (Captain Winston Havlock), Стивен Данэм (Mr. Henderson), Кори Джонсон (Mr. Daniels), Так Уоткинс (Mr. Burns)
Перевод: профессиональный (закадровый многоголосый) 4 шт. , профессиональный (полное дублирование) (укр.), одноголосый (3 шт.) + оригинал
Субтитры: Russian (forced), Russian, Ukrainian (forced), English (forced), English
Описание: На бескрайних просторах египетской пустыни компания сорвиголов разных национальностей рыщет в поисках несметных сокровищ фараона, над которыми тяготеет жуткое древнее проклятие.
Рядом с кладом покоится мумия коварного жреца, жестоко казненного за ужасное убийство могущественного правителя Египта. Золотоискатели потревожили многовековой покой гробницы, и мумия встает из могилы, чтобы погрузить мир в царство кошмара

Качество: HDDVDRip 720p
Продолжительность: 02:04:53
Формат: MKV
Видео кодек: AVC
Аудио кодек: AC3 / DTS
Видео: 1280x542 (2.35:1) at 23.976 fps, x264@L4.1, crf, ~5963 kbps avg, 0.344 bit/pixel
Аудио#1: Russian; 48 kHz, DTS, 3/2 (L,C,R,l,r) + LFE ch, ~768.00 kbps avg |Многоголосый закадровый, Премьер-Видео-Фильм|
Аудио#2: Russian; 48 kHz, DTS, 3/2 (L,C,R,l,r) + LFE ch, ~768.00 kbps avg |Многоголосый закадровый, FDV Киномания|
Аудио#3: Russian; 48 kHz, AC3, 3/2 (L,C,R,l,r) + LFE ch, ~384.00 kbps avg |Многоголосый закадровый, Киномания|
Аудио#4: Russian; 48 kHz, AC3, 2/0 (L,R) ch, ~448.00 kbps avg |Многоголосый закадровый, Blu-ray CEE|
Аудио#5: Russian; 48 kHz, AC3, 3/2 (L,C,R,l,r) + LFE ch, ~384.00 kbps avg |Одноголосый закадровый,, М. Латышев|
Аудио#6: Russian; 48 kHz, AC3, 3/2 (L,C,R,l,r) + LFE ch, ~640.00 kbps avg |Одноголосый закадровый, А. Кашкин|
Аудио#7: Ukrainian; 48 kHz, AC3, 2/0 (L,R) ch, ~192.00 kbps avg |Дубляж
Аудио#8: Russian; 48 kHz, DTS, 3/2 (L,C,R,l,r) + LFE ch, ~1536.00 kbps avg |Одноголосый закадровый, А. Гаврилов|
Аудио#9: English; 48 kHz, DTS, 3/2 (L,C,R,l,r) + LFE ch, ~1536.00 kbps avg

Media Info

General
Unique ID : 202192333646601707144925896327922405715 (0x981CD3B5965A25E2A8A717B7A1C75153)
Complete name : The.Mummy.1999.720p.HDDVD.7xRus.Ukr.Eng.HDCLUB-Skazhutin.mkv
Format : Matroska
Format version : Version 2
File size : 10.6 GiB
Duration : 2h 4mn
Overall bit rate : 12.1 Mbps
Movie name : The Mummy (1999) - Release for HDCLUB by Skazhutin
Encoded date : UTC 2012-03-20 05:28:50
Writing application : mkvmerge v5.4.0 ('Piper') built on Mar 10 2012 13:34:39
Writing library : libebml v1.2.3 + libmatroska v1.3.0
Attachment : Yes / Yes
Video
ID : 1
Format : AVC
Format/Info : Advanced Video Codec
Format profile : High@L4.1
Format settings, CABAC : Yes
Format settings, ReFrames : 11 frames
Codec ID : V_MPEG4/ISO/AVC
Duration : 2h 4mn
Bit rate : 5 727 Kbps
Width : 1 280 pixels
Height : 542 pixels
Display aspect ratio : 2.35:1
Frame rate : 23.976 fps
Color space : YUV
Chroma subsampling : 4:2:0
Bit depth : 8 bits
Scan type : Progressive
Bits/(Pixel*Frame) : 0.344
Stream size : 5.00 GiB (47%)
Title : Release for HDCLUB
Writing library : x264 core 122 r2184kMod 5c85e0a
Encoding settings : cabac=1 / ref=11 / deblock=1:-3:-2 / analyse=0x3:0x113 / me=umh / subme=11 / psy=1 / fade_compensate=0.00 / psy_rd=0.95:0.00 / mixed_ref=1 / me_range=48 / chroma_me=1 / trellis=2 / 8x8dct=1 / cqm=0 / deadzone=21,11 / fast_pskip=1 / chroma_qp_offset=-2 / threads=12 / sliced_threads=0 / nr=0 / decimate=1 / interlaced=0 / bluray_compat=0 / constrained_intra=0 / bframes=10 / b_pyramid=2 / b_adapt=2 / b_bias=0 / direct=1 / weightb=1 / open_gop=0 / weightp=2 / keyint=250 / keyint_min=23 / scenecut=40 / intra_refresh=0 / rc_lookahead=60 / rc=crf / mbtree=1 / crf=17.0000 / qcomp=0.75 / qpmin=0 / qpmax=69 / qpstep=4 / vbv_maxrate=50000 / vbv_bufsize=62500 / crf_max=0.0 / nal_hrd=none / ip_ratio=1.40 / aq=3:0.85
Language : English
Default : Yes
Forced : No
Matrix coefficients : BT.709-5, BT.1361, IEC 61966-2-4 709, SMPTE RP177
Audio #1
ID : 2
Format : DTS
Format/Info : Digital Theater Systems
Codec ID : A_DTS
Duration : 2h 4mn
Bit rate mode : Constant
Bit rate : 755 Kbps
Channel(s) : 6 channels
Channel positions : Front: L C R, Side: L R, LFE
Sampling rate : 48.0 KHz
Bit depth : 24 bits
Compression mode : Lossy
Stream size : 674 MiB (6%)
Title : DTS 5.1 @ 768 kbps - Многоголосный, Премьер-Видео-Фильм
Language : Russian
Default : Yes
Forced : No
Audio #2
ID : 3
Format : DTS
Format/Info : Digital Theater Systems
Codec ID : A_DTS
Duration : 2h 4mn
Bit rate mode : Constant
Bit rate : 755 Kbps
Channel(s) : 6 channels
Channel positions : Front: L C R, Side: L R, LFE
Sampling rate : 48.0 KHz
Bit depth : 16 bits
Compression mode : Lossy
Stream size : 674 MiB (6%)
Title : DTS 5.1 @ 768 kbps - Многоголосный, FDV
Language : Russian
Default : No
Forced : No
Audio #3
ID : 4
Format : AC-3
Format/Info : Audio Coding 3
Mode extension : CM (complete main)
Codec ID : A_AC3
Duration : 2h 4mn
Bit rate mode : Constant
Bit rate : 384 Kbps
Channel(s) : 6 channels
Channel positions : Front: L C R, Side: L R, LFE
Sampling rate : 48.0 KHz
Bit depth : 16 bits
Compression mode : Lossy
Stream size : 343 MiB (3%)
Title : AC3 5.1 @ 384 kbps - Многоголосный, Киномания
Language : Russian
Default : No
Forced : No
Audio #4
ID : 5
Format : AC-3
Format/Info : Audio Coding 3
Mode extension : CM (complete main)
Codec ID : A_AC3
Duration : 2h 4mn
Bit rate mode : Constant
Bit rate : 448 Kbps
Channel(s) : 2 channels
Channel positions : Front: L R
Sampling rate : 48.0 KHz
Bit depth : 16 bits
Compression mode : Lossy
Stream size : 400 MiB (4%)
Title : AC3 5.1 @ 448 kbps - Многоголосный, Blu-ray CEE
Language : Russian
Default : No
Forced : No
Audio #5
ID : 6
Format : AC-3
Format/Info : Audio Coding 3
Mode extension : CM (complete main)
Codec ID : A_AC3
Duration : 2h 4mn
Bit rate mode : Constant
Bit rate : 384 Kbps
Channel(s) : 6 channels
Channel positions : Front: L C R, Side: L R, LFE
Sampling rate : 48.0 KHz
Bit depth : 16 bits
Compression mode : Lossy
Stream size : 343 MiB (3%)
Title : AC3 5.1 @ 384 kbps - Одноголосный, М. Латышев
Language : Russian
Default : No
Forced : No
Audio #6
ID : 7
Format : AC-3
Format/Info : Audio Coding 3
Mode extension : CM (complete main)
Codec ID : A_AC3
Duration : 2h 4mn
Bit rate mode : Constant
Bit rate : 192 Kbps
Channel(s) : 2 channels
Channel positions : Front: L R
Sampling rate : 48.0 KHz
Bit depth : 16 bits
Compression mode : Lossy
Stream size : 172 MiB (2%)
Title : AC3 2.0 @ 192 kbps - Одноголосный, А. Кашкин
Language : Russian
Default : No
Forced : No
Audio #7
ID : 8
Format : AC-3
Format/Info : Audio Coding 3
Mode extension : CM (complete main)
Codec ID : A_AC3
Duration : 2h 4mn
Bit rate mode : Constant
Bit rate : 192 Kbps
Channel(s) : 2 channels
Channel positions : Front: L R
Sampling rate : 48.0 KHz
Bit depth : 16 bits
Compression mode : Lossy
Stream size : 172 MiB (2%)
Title : AC3 2.0 @ 192 kbps - Дублированный
Language : Ukrainian
Default : No
Forced : No
Audio #8
ID : 9
Format : DTS
Format/Info : Digital Theater Systems
Codec ID : A_DTS
Duration : 2h 4mn
Bit rate mode : Constant
Bit rate : 1 510 Kbps
Channel(s) : 6 channels
Channel positions : Front: L C R, Side: L R, LFE
Sampling rate : 48.0 KHz
Bit depth : 24 bits
Compression mode : Lossy
Stream size : 1.32 GiB (12%)
Title : DTS 5.1 @ 1536 kbps - Одноголосный, А. Гаврилов
Language : Russian
Default : No
Forced : No
Audio #9
ID : 10
Format : DTS
Format/Info : Digital Theater Systems
Codec ID : A_DTS
Duration : 2h 4mn
Bit rate mode : Constant
Bit rate : 1 510 Kbps
Channel(s) : 6 channels
Channel positions : Front: L C R, Side: L R, LFE
Sampling rate : 48.0 KHz
Bit depth : 24 bits
Compression mode : Lossy
Stream size : 1.32 GiB (12%)
Title : DTS 5.1 @ 1536 kbps
Language : English
Default : No
Forced : No
Text #1
ID : 11
Format : UTF-8
Codec ID : S_TEXT/UTF8
Codec ID/Info : UTF-8 Plain Text
Title : forced
Language : Russian
Default : Yes
Forced : No
Text #2
ID : 12
Format : UTF-8
Codec ID : S_TEXT/UTF8
Codec ID/Info : UTF-8 Plain Text
Language : Russian
Default : No
Forced : No
Text #3
ID : 13
Format : UTF-8
Codec ID : S_TEXT/UTF8
Codec ID/Info : UTF-8 Plain Text
Title : forced
Language : Ukrainian
Default : No
Forced : No
Text #4
ID : 14
Format : UTF-8
Codec ID : S_TEXT/UTF8
Codec ID/Info : UTF-8 Plain Text
Title : forced
Language : English
Default : No
Forced : No
Text #5
ID : 15
Format : UTF-8
Codec ID : S_TEXT/UTF8
Codec ID/Info : UTF-8 Plain Text
Language : English
Default : No
Forced : No
Menu
00:00:00.000 : en:The Living Death
00:07:10.596 : en:Sand and Blood
00:12:19.239 : en:The Key to Hamunaptra
00:23:19.897 : en:The Expedition
00:29:03.409 : en:The Magi Strike
00:36:46.371 : en:The City of the Dead
00:43:39.117 : en:Chambers of Death
00:49:06.943 : en:Leave or Die!
00:53:34.043 : en:The Black Book
00:57:29.947 : en:The Bringer of Death
01:11:13.600 : en:A Curse in Cairo
01:18:48.555 : en:The Regeneration
01:27:29.912 : en:Evelyn's Choice
01:30:03.899 : en:Back to Hamunaptra
01:36:33.118 : en:Against the Dead
01:43:58.229 : en:The Gold Book
01:49:44.911 : eneath of a Mortal
01:56:51.837 : en:End Titles
  • За основу, видео взято с HDDVD издания.
  • Все Русские DTS-HD MA получены наложением чистых реплик на центр декодированной оригинальной дорожки.
  • За исходные дорожки спасибо Donkihot, GarfieldX, Rushmore, selanne, SnDamil, isbs.Так же robotron005 и dovan с Hurtom за укр.дубляж
  • За чистые реплики большое спасибо sergey_n и В. Стаханову.
  • Русский и украинский дубляжи сделаны в псевдостерео, так как в остальных каналах присутствовало английское эхо.
  • Присутствует хард саб на египетскую речь.
РАЗДАЧА ОТ:
by Skazhutin

[Цитировать]



Показать сообщения:    

Текущее время: 10-Дек 00:15

Часовой пояс: UTC + 3


Вы не можете начинать темы
Вы не можете отвечать на сообщения
Вы не можете редактировать свои сообщения
Вы не можете удалять свои сообщения
Вы не можете голосовать в опросах
Вы не можете прикреплять файлы к сообщениям
Вы не можете скачивать файлы

!ВНИМАНИЕ!
Сайт не предоставляет электронные версии произведений, а занимается лишь коллекционированием и каталогизацией ссылок, присылаемых и публикуемых на форуме нашими читателями. Если вы являетесь правообладателем какого-либо представленного материала и не желаете, чтобы ссылка на него находилась в нашем каталоге, свяжитесь с нами, и мы незамедлительно удалим ее. Файлы для обмена на трекере предоставлены пользователями сайта, и администрация не несет ответственности за их содержание. Просьба не заливать файлы, защищенные авторскими правами, а также файлы нелегального содержания!