[ Сегодня идет свободное скачивание без начисления Download ]


Статистика раздачи
Скачал: [ 1 ]
 
   
 
Top  
 
 
- Специалист | Zend Framework 2: Основы разработки + Расширенные возможности (2013) PCRec - Автор (режиссер): Алексей Владимирович Тарасов
Производство: Специалист
Жанр: Программирование
Описание:
Zend Framework 2 – библиотека классов с открытым исходным кодом, в основу которого положен принцип «крайней простоты». ZF2 помогает упростить процесс разработки и позволяет повысить конкурентоспособность и продуктивность разработчика. Использование набора настраиваемых классов PHP, ZF2 обеспечивает надежную функциональность и подходит как для больших, так и для малых задач.
Продолжительность: 23:12:36
Качество видео: PCRec
Видео: ДРУГОЙ, 1024x768, ~265 kbps
Аудио: WMA, 2 ch, 102 kbps

Mediainfo:

Общее
Полное имя                               : D:\Zend Framework 2\1 The Basics\2013-08-28 09.57.wmv
Формат                                   : Windows Media
Размер файла                             : 559 Мбайт
Продолжительность                        : 4 ч. 4 м.
Режим общего битрейта                    : Переменный
Общий поток                              : 319 Кбит/сек
Максимальный общий битрейт               : 1933 Кбит/сек
Название фильма                          : zend1_day1
Дата кодирования                         : UTC 2013-09-07 08:53:27.240
Видео
Идентификатор                            : 2
Формат                                   : VC-1
Профиль формата                          : MP@HL
Идентификатор кодека                     : WMV3
Идентификатор кодека/Информация          : Windows Media Video 9
Идентификатор кодека/Подсказка           : WMV3
Описание кодека                          : Windows Media Video 9
Продолжительность                        : 4 ч. 4 м.
Вид битрейта                             : Переменный
Битрейт                                  : 200 Кбит/сек
Ширина                                   : 1024 пикселя
Высота                                   : 768 пикселей
Соотношение сторон                       : 4:3
Частота кадров                           : 30,000 кадров/сек
Цветовое пространство                    : YUV
Субдискретизация насыщенности            : 4:2:0
Битовая глубина                          : 8 бит
Тип развёртки                            : Прогрессивная
Метод сжатия                             : С потерями
Бит/(Пиксели*Кадры)                      : 0.008
Размер потока                            : 351 Мбайт (63%)
Язык                                     : English (US)
Аудио
Идентификатор                            : 1
Формат                                   : WMA
Версия формата                           : Version 2
Идентификатор кодека                     : 161
Идентификатор кодека/Информация          : Windows Media Audio
Описание кодека                          : Windows Media Audio 9.2 - VBR Quality 90, 44 kHz, stereo 1-pass VBR
Продолжительность                        : 4 ч. 4 м.
Вид битрейта                             : Переменный
Битрейт                                  : 102 Кбит/сек
Каналы                                   : 2 канала
Частота                                  : 44,1 КГц
Битовая глубина                          : 16 бит
Размер потока                            : 179 Мбайт (32%)
Язык                                     : English (US)
Скриншоты:

[Цитировать]



Показать сообщения:    

Текущее время: 10-Дек 21:27

Часовой пояс: UTC + 3


Вы не можете начинать темы
Вы не можете отвечать на сообщения
Вы не можете редактировать свои сообщения
Вы не можете удалять свои сообщения
Вы не можете голосовать в опросах
Вы не можете прикреплять файлы к сообщениям
Вы не можете скачивать файлы

!ВНИМАНИЕ!
Сайт не предоставляет электронные версии произведений, а занимается лишь коллекционированием и каталогизацией ссылок, присылаемых и публикуемых на форуме нашими читателями. Если вы являетесь правообладателем какого-либо представленного материала и не желаете, чтобы ссылка на него находилась в нашем каталоге, свяжитесь с нами, и мы незамедлительно удалим ее. Файлы для обмена на трекере предоставлены пользователями сайта, и администрация не несет ответственности за их содержание. Просьба не заливать файлы, защищенные авторскими правами, а также файлы нелегального содержания!