[ Сегодня идет свободное скачивание без начисления Download ]


Статистика раздачи
Нет
 
   
 
Top  
 
 
Бугимен / Boogeyman Название: Бугимен
Оригинальное название: Boogeyman
Год выхода: 2005
Страна: США
Студия: Screen Gems, Senator International, Ghost House Pictures
Продолжительность: 01:28:56
Жанр: ужасы, триллер, драма, детектив, ...
Режиссер: Стефен Т. Кэй
В ролях: Бэрри Уотсон, Эмили Дешанель, Скай МакКоул Бартусяк, Тори Массет, Эндрю Гловер, Люси Лоулесс, Чарльз Межер, Филип Гордон, Аарон Мерфи, Дженнифер Ракер, ...
Перевод:
Профессиональный (дублированный) МОСФИЛЬМ-мастер
Профессиональный (двуголосый, закадровый) Tycoon Studio
О фильме: Бугимэн — мифическое, мистическое существо. В преданиях каждого народа есть такой монстр, живущий в детских ночных кошмарах. Тиму уже 20 лет, но Бугимэн до сих пор живет в его памяти, как жуткое существо, поглотившее его отца 16 лет тому назад. Реален ли Бугимэн?
И если нет, как тогда объяснить исчезновение отца Тима? Ответ скрыт в каждом темном углу, за каждой полузакрытой дверью в доме его детства — там, куда Тиму придется вернуться и узнать, наконец, ответ на леденящий душу вопрос — существует ли Бугимэн на самом деле?…

Кодек: x264
Качество: BDRip 1080p
Видео: 1920x1080, 13000 kbps, 23,976 fps
Аудио #1: AC-3, 6 ch, 448 kbps (Rus) - Dub МОСФИЛЬМ-мастер
Аудио #2: AC-3, 6 ch, 448 kbps (Rus) - DVO Tycoon Studio
Аудио #3: AC-3, 6 ch, 448 kbps (Eng)
Субтитры: Русские, Английские

MediaInfo

x264 [info]: frame I:822 Avg QP:16.37 size:166949
x264 [info]: frame P:31785 Avg QP:17.40 size: 84526
x264 [info]: frame B:95248 Avg QP:19.25 size: 61287
x264 [info]: consecutive B-frames: 4.9% 3.9% 17.1% 7.5% 6.9% 53.4% 3.9% 0.5% 0.4% 0.1% 0.2% 0.8% 0.3%
Общее
Уникальный идентификатор : 216454347537755899775659056203152902506 (0xA2D797489A3EDCE19E234E31C28E496A)
Полное имя : C:TorrentБугимэн (Boogeyman) 2005 BDRip 1080р.mkv
Формат : Matroska
Версия формата : Version 2
Размер файла : 8,90 Гбайт
Продолжительность : 1 ч. 28 м.
Общий поток : 14,3 Мбит/сек
Дата кодирования : UTC 2016-04-13 12:05:40
Программа кодирования : mkvmerge v4.0.0 ('The Stars were mine') сборка от Jun 6 2010 16:18:42
Библиотека кодирования : libebml v1.0.0 + libmatroska v1.0.0
Видео
Идентификатор : 1
Формат : AVC
Формат/Информация : Advanced Video Codec
Профиль формата : High@L4.1
Параметр CABAC формата : Да
Параметр ReFrames формата : 4 кадра
Идентификатор кодека : V_MPEG4/ISO/AVC
Продолжительность : 1 ч. 28 м.
Битрейт : 13,0 Мбит/сек
Ширина : 1920 пикселей
Высота : 1080 пикселей
Соотношение сторон : 16:9
Режим частоты кадров : Постоянный
Частота кадров : 23,976 кадра/сек
Цветовое пространство : YUV
Субдискретизация насыщенности : 4:2:0
Битовая глубина : 8 бит
Тип развёртки : Прогрессивная
Бит/(Пиксели*Кадры) : 0.261
Размер потока : 7,89 Гбайт (89%)
Библиотека кодирования : x264 core 146 r2538 121396c
Настройки программы : cabac=1 / ref=4 / deblock=1:-3:-3 / analyse=0x3:0x133 / me=umh / subme=11 / psy=1 / psy_rd=1.00:0.16 / mixed_ref=1 / me_range=32 / chroma_me=1 / trellis=2 / 8x8dct=1 / cqm=0 / deadzone=21,11 / fast_pskip=0 / chroma_qp_offset=-3 / threads=12 / lookahead_threads=2 / sliced_threads=0 / nr=0 / decimate=0 / interlaced=0 / bluray_compat=0 / constrained_intra=0 / bframes=12 / b_pyramid=2 / b_adapt=2 / b_bias=0 / direct=3 / weightb=1 / open_gop=0 / weightp=2 / keyint=240 / keyint_min=23 / scenecut=40 / intra_refresh=0 / rc_lookahead=60 / rc=2pass / mbtree=0 / bitrate=13000 / ratetol=1.0 / qcomp=0.60 / qpmin=0 / qpmax=69 / qpstep=4 / cplxblur=20.0 / qblur=0.5 / vbv_maxrate=50000 / vbv_bufsize=62500 / nal_hrd=none / filler=0 / ip_ratio=1.40 / pb_ratio=1.30 / aq=1:0.80
Язык : English
Default : Нет
Forced : Нет
Аудио #1
Идентификатор : 2
Формат : AC-3
Формат/Информация : Audio Coding 3
Расширение режима : CM (complete main)
Параметр Endianness формата : Big
Идентификатор кодека : A_AC3
Продолжительность : 1 ч. 28 м.
Вид битрейта : Постоянный
Битрейт : 448 Кбит/сек
Каналы : 6 каналов
Расположение каналов : Front: L C R, Side: L R, LFE
Частота : 48,0 КГц
Метод сжатия : С потерями
Размер потока : 285 Мбайт (3%)
Заголовок : Dub МОСФИЛЬМ-мастер
Язык : Russian
Default : Нет
Forced : Нет
Аудио #2
Идентификатор : 3
Формат : AC-3
Формат/Информация : Audio Coding 3
Расширение режима : CM (complete main)
Параметр Endianness формата : Big
Идентификатор кодека : A_AC3
Продолжительность : 1 ч. 28 м.
Вид битрейта : Постоянный
Битрейт : 448 Кбит/сек
Каналы : 6 каналов
Расположение каналов : Front: L C R, Side: L R, LFE
Частота : 48,0 КГц
Метод сжатия : С потерями
Размер потока : 285 Мбайт (3%)
Заголовок : DVO Tycoon Studio
Язык : Russian
Default : Нет
Forced : Нет
Аудио #3
Идентификатор : 4
Формат : AC-3
Формат/Информация : Audio Coding 3
Расширение режима : CM (complete main)
Параметр Endianness формата : Big
Идентификатор кодека : A_AC3
Продолжительность : 1 ч. 28 м.
Вид битрейта : Постоянный
Битрейт : 448 Кбит/сек
Каналы : 6 каналов
Расположение каналов : Front: L C R, Side: L R, LFE
Частота : 48,0 КГц
Метод сжатия : С потерями
Размер потока : 285 Мбайт (3%)
Язык : English
Default : Нет
Forced : Нет
Текст #1
Идентификатор : 5
Формат : UTF-8
Идентификатор кодека : S_TEXT/UTF8
Идентификатор кодека/Информация : UTF-8 Plain Text
Язык : Russian
Default : Нет
Forced : Нет
Текст #2
Идентификатор : 6
Формат : UTF-8
Идентификатор кодека : S_TEXT/UTF8
Идентификатор кодека/Информация : UTF-8 Plain Text
Язык : English
Default : Нет
Forced : Нет

Скриншоты

[Цитировать]



Показать сообщения:    

Текущее время: 11-Дек 12:57

Часовой пояс: UTC + 3


Вы не можете начинать темы
Вы не можете отвечать на сообщения
Вы не можете редактировать свои сообщения
Вы не можете удалять свои сообщения
Вы не можете голосовать в опросах
Вы не можете прикреплять файлы к сообщениям
Вы не можете скачивать файлы

!ВНИМАНИЕ!
Сайт не предоставляет электронные версии произведений, а занимается лишь коллекционированием и каталогизацией ссылок, присылаемых и публикуемых на форуме нашими читателями. Если вы являетесь правообладателем какого-либо представленного материала и не желаете, чтобы ссылка на него находилась в нашем каталоге, свяжитесь с нами, и мы незамедлительно удалим ее. Файлы для обмена на трекере предоставлены пользователями сайта, и администрация не несет ответственности за их содержание. Просьба не заливать файлы, защищенные авторскими правами, а также файлы нелегального содержания!