[ Сегодня идет свободное скачивание без начисления Download ]


Статистика раздачи
Нет
 
   
 
Top  
 
 
Дорожные игры / Road Games (2015) WEB-DL 720p Информация о фильме
Название: Дорожные игры
Оригинальное название: Road Games
Год выхода: 2015
Жанр: триллер
Режиссер: Эбнер Пастолл
В ролях: Эндрю Симпсон, Жозефин де ла Буме, Фредерик Пьеро, Барбара Крэмптон, Федор Аткин, Пьер Буланжер, Сузанна Каппельяро, Эдвард Хогг, Clémentine Alexandre, Erwan Hiernard
О фильме: “Дорожные игры” – не совсем типичный фильм ужасов об опасной привычке ловить попутки на пустынных безлюдных дорогах. Молодой американец Джек вынужден ловить попутки во Франции. Местная девушка Вероника объясняет парню, что в этих краях орудует серийный убийца, жертвами которого уже стали десятки людей, поэтому любой водитель считает благоразумным не брать попутчиков. Наконец, один француз соглашается их подвести и даже приглашает к себе домой. Не зная французского, Джек оказываются вовлечен в череду ужасных событий устроенных хозяевами-лягушатниками.

Выпущено: Великобритания, Франция / February Films, Superbe Films, Trigger Films
Продолжительность: 01:34:55
Озвучивание: Любительское (одноголосое) [Хихикающий доктор]
Файл
Формат: MKV
Качество: WEB-DL 720p
Видео: MPEG-4 AVC, 4052 kb/s, 1280x532
Аудио: Russian: AC3, 192 kb/s (2 ch) / English: AC3, 384 kb/s (6 ch)

MI

Format : Matroska
Format version : Version 2
File size : 3.13 GiB
Duration : 1h 34mn
Overall bit rate : 4 722 Kbps
Encoded date : UTC 2016-04-16 20:50:57
Writing application : mkvmerge v7.8.0 ('River Man') 32bit built on Apr 3 2015 12:11:22
Writing library : libebml v1.3.1 + libmatroska v1.4.2
Video
ID : 1
Format : AVC
Format/Info : Advanced Video Codec
Format profile : [email protected]
Format settings, CABAC : No
Format settings, ReFrames : 2 frames
Codec ID : V_MPEG4/ISO/AVC
Duration : 1h 34mn
Bit rate : 4 052 Kbps
Width : 1 280 pixels
Height : 532 pixels
Display aspect ratio : 2.40:1
Frame rate mode : Constant
Frame rate : 24.000 fps
Color space : YUV
Chroma subsampling : 4:2:0
Bit depth : 8 bits
Scan type : Progressive
Bits/(Pixel*Frame) : 0.248
Stream size : 2.69 GiB (86%)
Language : English
Default : Yes
Forced : No
Color range : Limited
Color primaries : BT.709
Transfer characteristics : BT.709
Matrix coefficients : BT.709
Audio #1
ID : 2
Format : AC-3
Format/Info : Audio Coding 3
Mode extension : CM (complete main)
Format settings, Endianness : Big
Codec ID : A_AC3
Duration : 1h 34mn
Bit rate mode : Constant
Bit rate : 192 Kbps
Channel(s) : 2 channels
Channel positions : Front: L R
Sampling rate : 48.0 KHz
Bit depth : 16 bits
Compression mode : Lossy
Stream size : 130 MiB (4%)
Language : Russian
Default : Yes
Forced : No
Audio #2
ID : 3
Format : AC-3
Format/Info : Audio Coding 3
Mode extension : CM (complete main)
Format settings, Endianness : Big
Codec ID : A_AC3
Duration : 1h 34mn
Bit rate mode : Constant
Bit rate : 384 Kbps
Channel(s) : 6 channels
Channel positions : Front: L C R, Side: L R, LFE
Sampling rate : 48.0 KHz
Bit depth : 16 bits
Compression mode : Lossy
Stream size : 261 MiB (8%)
Language : English
Default : No
Forced : No
Menu
00:00:00.000 : en:1
00:10:39.000 : en:2
00:20:23.000 : en:3
00:32:30.000 : en:4
00:45:40.000 : en:5
00:56:52.000 : en:6
01:06:44.000 : en:7
01:16:13.000 : en:8
01:29:46.000 : en:9

Скриншоты

[Цитировать]



Показать сообщения:    

Текущее время: 05-Дек 07:25

Часовой пояс: UTC + 3


Вы не можете начинать темы
Вы не можете отвечать на сообщения
Вы не можете редактировать свои сообщения
Вы не можете удалять свои сообщения
Вы не можете голосовать в опросах
Вы не можете прикреплять файлы к сообщениям
Вы не можете скачивать файлы

!ВНИМАНИЕ!
Сайт не предоставляет электронные версии произведений, а занимается лишь коллекционированием и каталогизацией ссылок, присылаемых и публикуемых на форуме нашими читателями. Если вы являетесь правообладателем какого-либо представленного материала и не желаете, чтобы ссылка на него находилась в нашем каталоге, свяжитесь с нами, и мы незамедлительно удалим ее. Файлы для обмена на трекере предоставлены пользователями сайта, и администрация не несет ответственности за их содержание. Просьба не заливать файлы, защищенные авторскими правами, а также файлы нелегального содержания!