[ Сегодня идет свободное скачивание без начисления Download ]


Статистика раздачи
Нет
 
   
 
Top  
 
 
От звонка до звонка / Starred Up (2013) BDRip 1080p Информация о фильме
Название: От звонка до звонка
Оригинальное название: Starred Up
Год выпуска: 2013
Жанр: Драма, криминал
Выпущено: Великобритания, Film4, Lip Sync Productions, Quickfire Films, Sigma Films
Режиссер: Дэвид Маккензи
В ролях: Джек О`Коннелл, Руперт Френд, Бен Мендельсон, Сэм Спруэлл, Дэвид Аджала, Шан Брекин, Питер Фердинандо, Дэвид Крисанту, Энтони Уэльс, Шэйн МакКэффри
О фильме: У Эрика крайне непростая жизнь и проблемный характер. В свои юные годы этот герой британской драмы уже сделался преступником и теперь оказался в тюрьме для взрослых. С самого начала он пытается самоутвердиться среди сотрудников тюрьмы и других обитателей и сталкивается со своим отцом, человеком, который почти всю свою жизнь пробыл за решеткой. По мере того как интрига в фильме нарастает, Эрик заводит дружбу с другими заключенными и осознает, что его озлобленность по отношению ко всем и вся можно преодолеть. Ему открываются новые правила выживания, однако есть силы, способные его уничтожить…

Продолжительность: 01:45:56
Перевод: Профессиональный многоголосый, любительский одноголосый
Файл
Качество: BDRip (1080p)
Видео: MPEG-4 AVC, 7472 Кбит/с, 1920x804
Аудио #1: Русский (DTS, 6 ch, 1510 Кбит/с) - Студия "Чемоданов Продакшн"
Аудио #2: Русский (AC3, 6 ch, 640 Кбит/с) - Студия "Чемоданов Продакшн"
Аудио #3: Русский (AC3, 2 ch, 224 Кбит/с) - PashaUP [Ненорматив]
Аудио #4: Английский (AC3, 6 ch, 640 Кбит/с)
Субтитры: Русские, английские

МедиаИнфо

Формат : Matroska
Версия формата : Version 2
Размер файла : 7,76 Гбайт
Продолжительность : 1 ч. 45 м.
Общий поток : 10,5 Мбит/сек
Название фильма : ~V ad~
Дата кодирования : UTC 2016-04-17 22:28:18
Программа кодирования : mkvmerge v6.5.0 ('Isn't she lovely') built on Oct 20 2013 12:50:05
Библиотека кодирования : libebml v1.3.0 + libmatroska v1.4.1
Видео
Идентификатор : 1
Формат : AVC
Формат/Информация : Advanced Video Codec
Профиль формата : High@L4.1
Параметр CABAC формата : Да
Параметр ReFrames формата : 5 кадров
Идентификатор кодека : V_MPEG4/ISO/AVC
Продолжительность : 1 ч. 45 м.
Битрейт : 7472 Кбит/сек
Ширина : 1920 пикселей
Высота : 804 пикселя
Соотношение сторон : 2,40:1
Режим частоты кадров : Постоянный
Частота кадров : 23,976 кадра/сек
Цветовое пространство : YUV
Субдискретизация насыщенности : 4:2:0
Битовая глубина : 8 бит
Тип развёртки : Прогрессивная
Бит/(Пиксели*Кадры) : 0.202
Размер потока : 5,38 Гбайт (69%)
Заголовок : ~V~
Библиотека кодирования : x264 core 142 r2409+42 04be48a tMod [8-bit@all X86_64]
Настройки программы : cabac=1 / ref=5 / deblock=1:-3:-3 / analyse=0x3:0x133 / me=umh / subme=11 / psy=1 / fade_compensate=0.00 / psy_rd=1.00:0.00 / mixed_ref=1 / me_range=32 / chroma_me=1 / trellis=2 / 8x8dct=1 / cqm=0 / deadzone=21,11 / fast_pskip=0 / chroma_qp_offset=-2 / threads=12 / lookahead_threads=1 / sliced_threads=0 / nr=0 / decimate=0 / interlaced=0 / bluray_compat=0 / constrained_intra=0 / fgo=0 / bframes=9 / b_pyramid=2 / b_adapt=2 / b_bias=0 / direct=3 / weightb=1 / open_gop=0 / weightp=2 / keyint=240 / keyint_min=23 / scenecut=40 / intra_refresh=0 / rc=2pass / mbtree=0 / bitrate=7472 / ratetol=1.0 / qcomp=0.60 / qpmin=0:0:0 / qpmax=69:69:69 / qpstep=4 / cplxblur=20.0 / qblur=0.5 / ip_ratio=1.40 / pb_ratio=1.30 / aq=4:0.70 / aq-sensitivity=10.00 / aq-factor=1.00:1.00:1.00 / aq2=0 / aq3=0
Язык : English
Default : Да
Forced : Нет
Аудио #1
Идентификатор : 2
Формат : DTS
Формат/Информация : Digital Theater Systems
Режим : 16
Параметр Endianness формата : Big
Идентификатор кодека : A_DTS
Продолжительность : 1 ч. 45 м.
Вид битрейта : Постоянный
Битрейт : 1509 Кбит/сек
Каналы : 6 каналов
Расположение каналов : Front: L C R, Side: L R, LFE
Частота : 48,0 КГц
Битовая глубина : 24 бит
Метод сжатия : С потерями
Размер потока : 1,12 Гбайт (14%)
Заголовок : MVO [Чемоданов Продакшн]
Язык : Russian
Default : Да
Forced : Да
Аудио #2
Идентификатор : 3
Формат : AC-3
Формат/Информация : Audio Coding 3
Расширение режима : CM (complete main)
Параметр Endianness формата : Big
Идентификатор кодека : A_AC3
Продолжительность : 1 ч. 45 м.
Вид битрейта : Постоянный
Битрейт : 640 Кбит/сек
Каналы : 6 каналов
Расположение каналов : Front: L C R, Side: L R, LFE
Частота : 48,0 КГц
Метод сжатия : С потерями
Размер потока : 485 Мбайт (6%)
Заголовок : MVO [Чемоданов Продакшн]
Язык : Russian
Default : Нет
Forced : Нет
Аудио #3
Идентификатор : 4
Формат : AC-3
Формат/Информация : Audio Coding 3
Расширение режима : CM (complete main)
Параметр Endianness формата : Big
Идентификатор кодека : A_AC3
Продолжительность : 1 ч. 45 м.
Вид битрейта : Постоянный
Битрейт : 224 Кбит/сек
Каналы : 2 канала
Расположение каналов : Front: L R
Частота : 48,0 КГц
Метод сжатия : С потерями
Размер потока : 170 Мбайт (2%)
Заголовок : VO [PashaUP]
Язык : Russian
Default : Нет
Forced : Нет
Аудио #4
Идентификатор : 5
Формат : AC-3
Формат/Информация : Audio Coding 3
Расширение режима : CM (complete main)
Параметр Endianness формата : Big
Идентификатор кодека : A_AC3
Продолжительность : 1 ч. 45 м.
Вид битрейта : Постоянный
Битрейт : 640 Кбит/сек
Каналы : 6 каналов
Расположение каналов : Front: L C R, Side: L R, LFE
Частота : 48,0 КГц
Метод сжатия : С потерями
Размер потока : 485 Мбайт (6%)
Язык : English
Default : Нет
Forced : Нет
Текст #1
Идентификатор : 6
Формат : UTF-8
Идентификатор кодека : S_TEXT/UTF8
Идентификатор кодека/Информация : UTF-8 Plain Text
Заголовок : Enigma
Язык : Russian
Default : Нет
Forced : Нет
Текст #2
Идентификатор : 7
Формат : UTF-8
Идентификатор кодека : S_TEXT/UTF8
Идентификатор кодека/Информация : UTF-8 Plain Text
Язык : English
Default : Нет
Forced : Нет
Текст #3
Идентификатор : 8
Формат : UTF-8
Идентификатор кодека : S_TEXT/UTF8
Идентификатор кодека/Информация : UTF-8 Plain Text
Заголовок : SDH
Язык : English
Default : Нет
Forced : Нет
Меню
00:00:00.000 : en:Chapter 01
00:01:26.628 : en:Chapter 02
00:06:36.562 : en:Chapter 03
00:09:16.430 : en:Chapter 04
00:11:32.733 : en:Chapter 05
00:14:51.765 : en:Chapter 06
00:19:30.794 : en:Chapter 07
00:22:05.365 : en:Chapter 08
00:26:29.337 : en:Chapter 09
00:30:00.673 : en:Chapter 10
00:32:17.936 : en:Chapter 11
00:36:16.841 : en:Chapter 12
00:40:20.167 : en:Chapter 13
00:42:05.981 : en:Chapter 14
00:45:20.592 : en:Chapter 15
00:49:59.204 : en:Chapter 16
00:53:43.470 : en:Chapter 17
00:57:22.647 : en:Chapter 18
00:59:45.665 : en:Chapter 19
01:03:08.951 : en:Chapter 20
01:04:13.641 : en:Chapter 21
01:06:59.473 : en:Chapter 22
01:08:45.246 : en:Chapter 23
01:12:52.785 : en:Chapter 24
01:15:30.108 : en:Chapter 25
01:20:56.643 : en:Chapter 26
01:22:54.719 : en:Chapter 27
01:27:02.467 : en:Chapter 28
01:30:22.458 : en:Chapter 29
01:35:12.832 : en:Chapter 30
01:38:12.219 : en:Chapter 31
01:41:45.933 : en:Chapter 32

х264

x264 [info]: frame I:1050 Avg QP:12.84 size:182480
x264 [info]: frame P:31800 Avg QP:15.61 size: 75245
x264 [info]: frame B:119551 Avg QP:17.44 size: 28026

Скриншоты


[Цитировать]



Показать сообщения:    

Текущее время: 11-Дек 14:51

Часовой пояс: UTC + 3


Вы не можете начинать темы
Вы не можете отвечать на сообщения
Вы не можете редактировать свои сообщения
Вы не можете удалять свои сообщения
Вы не можете голосовать в опросах
Вы не можете прикреплять файлы к сообщениям
Вы не можете скачивать файлы

!ВНИМАНИЕ!
Сайт не предоставляет электронные версии произведений, а занимается лишь коллекционированием и каталогизацией ссылок, присылаемых и публикуемых на форуме нашими читателями. Если вы являетесь правообладателем какого-либо представленного материала и не желаете, чтобы ссылка на него находилась в нашем каталоге, свяжитесь с нами, и мы незамедлительно удалим ее. Файлы для обмена на трекере предоставлены пользователями сайта, и администрация не несет ответственности за их содержание. Просьба не заливать файлы, защищенные авторскими правами, а также файлы нелегального содержания!