[ Сегодня идет свободное скачивание без начисления Download ]


Статистика раздачи
Нет
 
   
 
Top  
 
 
Пятьдесят оттенков черного / Fifty Shades of Black «Если ты вляпался в черное, никогда не отмоешься до серого»Год выпуска: 2016
Страна: США
Производство: IM Global
Жанр: Комедия
Режиссёр: Майкл Тиддес
В ролях: Марлон Уайанс, Кали Хоук, Фред Уиллард, Майк Эппс, Эффион Крокетт, Джейн Сеймур, Флоренс Хендерсон, Эндрю Бэчелор, Дженни Зигрино, Кейт Лэнг Джонсон, Сидни Кастилло, Ирен Чои, Расселл Питерс, Д.С. Эрвин, Шонте Вайанс, Винсент Ошана, Ховард Алонсо, Брэд Шмидт, Джои Ромэйн, Дейв Шеридан
Перевод: Профессиональный (полное дублирование) [iTunes
Субтитры: Английские (отключаемые) [UTF-8]
Описание: Неискушенная студентка колледжа знакомится с состоятельным бизнесменом, чьи сексуальные предпочтения омрачают их отношения. Дата премьеры (мир): 28 января 2016
Дата премьеры (РФ): 4 февраля 2016, «Парадиз»
Качество: BDRip AVC
Продолжительность: 01:31:58
Релиз от:
Формат: MKV
Видео кодек: AVC
Аудио кодек: AC3
Видео: 1032x430 (2.40:1), 23,976 fps, AVC ~ 1825 Кбит/сек avg, 0.172 bit/pixel
Аудио 1: AC3, 48 kHz, 6 ch, ~384 kbps| русский | Профессиональный (полное дублирование) [iTunes]

MediaInfo

Общее
Уникальный идентификатор : 223425108328468138883840142383426341565 (0xA8161C534814D71EA2DDA530D90C8ABD)
Полное имя : E:\Торренты новые\50.Ottenkov.Chernogo.2015.RUS.BDRip.x264.by_potroks.mkv
Формат : Matroska
Версия формата : Version 4 / Version 2
Размер файла : 1,42 Гбайт
Продолжительность : 1 ч. 31 м.
Общий поток : 2206 Кбит/сек
Название фильма : Fifty Shades of Blac (2015)
Дата кодирования : UTC 2016-04-10 10:21:33
Программа кодирования : mkvmerge v5.9.0 ('On The Loose') built on Dec 15 2012 16:39:58
Библиотека кодирования : libebml v1.3.0 + libmatroska v1.4.0
Видео
Идентификатор : 1
Формат : AVC
Формат/Информация : Advanced Video Codec
Профиль формата : High@L4.1
Параметр CABAC формата : Да
Параметр ReFrames формата : 11 кадров
Идентификатор кодека : V_MPEG4/ISO/AVC
Продолжительность : 1 ч. 31 м.
Битрейт : 1825 Кбит/сек
Ширина : 1032 пикселя
Высота : 430 пикселей
Соотношение сторон : 2,40:1
Режим частоты кадров : Постоянный
Частота кадров : 23,976 (24000/1001) кадра/сек
Цветовое пространство : YUV
Субдискретизация насыщенности : 4:2:0
Битовая глубина : 8 бит
Тип развёртки : Прогрессивная
Бит/(Пиксели*Кадры) : 0.172
Размер потока : 1,14 Гбайт (81%)
Заголовок : potroks
Библиотека кодирования : x264 core 148 r2665M a01e339
Настройки программы : cabac=1 / ref=11 / deblock=1:-2:-2 / analyse=0x3:0x133 / me=umh / subme=11 / psy=1 / psy_rd=1.04:0.09 / mixed_ref=1 / me_range=48 / chroma_me=1 / trellis=2 / 8x8dct=1 / cqm=0 / deadzone=21,11 / fast_pskip=0 / chroma_qp_offset=-3 / threads=9 / lookahead_threads=2 / sliced_threads=0 / nr=0 / decimate=1 / interlaced=0 / bluray_compat=0 / constrained_intra=0 / bframes=12 / b_pyramid=2 / b_adapt=2 / b_bias=0 / direct=3 / weightb=1 / open_gop=0 / weightp=2 / keyint=240 / keyint_min=23 / scenecut=40 / intra_refresh=0 / rc=2pass / mbtree=0 / bitrate=1825 / ratetol=1.0 / qcomp=0.70 / qpmin=0 / qpmax=69 / qpstep=4 / cplxblur=20.0 / qblur=0.5 / ip_ratio=1.40 / pb_ratio=1.30 / aq=1:0.80
Язык : English
Default : Да
Forced : Нет
Аудио
Идентификатор : 2
Формат : AC-3
Формат/Информация : Audio Coding 3
Расширение режима : CM (complete main)
Параметр Endianness формата : Big
Идентификатор кодека : A_AC3
Продолжительность : 1 ч. 31 м.
Вид битрейта : Постоянный
Битрейт : 384 Кбит/сек
Каналы : 6 каналов
Расположение каналов : Front: L C R, Side: L R, LFE
Частота : 48,0 КГц
Частота кадров : 31,250 кадров/сек (1536 spf)
Метод сжатия : С потерями
Размер потока : 253 Мбайт (17%)
Заголовок : Dub | DD 5.1 @ 384 kbps - iTunes
Язык : Russian
Default : Да
Forced : Нет
Текст #1
Идентификатор : 3
Формат : UTF-8
Идентификатор кодека : S_TEXT/UTF8
Идентификатор кодека/Информация : UTF-8 Plain Text
Заголовок : Full
Язык : English
Default : Нет
Forced : Нет
Текст #2
Идентификатор : 4
Формат : UTF-8
Идентификатор кодека : S_TEXT/UTF8
Идентификатор кодека/Информация : UTF-8 Plain Text
Заголовок : SDH
Язык : English
Default : Нет
Forced : Нет
Меню
00:00:00.000 : :Chapter 1
00:03:55.109 : :Chapter 2
00:09:30.695 : :Chapter 3
00:14:05.678 : :Chapter 4
00:16:32.074 : :Chapter 5
00:21:11.270 : :Chapter 6
00:24:27.382 : :Chapter 7
00:26:50.275 : :Chapter 8
00:32:44.712 : :Chapter 9
00:37:48.683 : :Chapter 10
00:43:08.377 : :Chapter 11
00:49:18.914 : :Chapter 12
00:52:10.710 : :Chapter 13
00:56:28.885 : :Chapter 14
00:59:37.490 : :Chapter 15
01:04:46.257 : :Chapter 16
01:07:50.274 : :Chapter 17
01:13:01.043 : :Chapter 18
01:20:21.775 : :Chapter 19
01:25:30.583 : :Chapter 20

Скриншоты

[Цитировать]



Показать сообщения:    

Текущее время: 09-Дек 12:33

Часовой пояс: UTC + 3


Вы не можете начинать темы
Вы не можете отвечать на сообщения
Вы не можете редактировать свои сообщения
Вы не можете удалять свои сообщения
Вы не можете голосовать в опросах
Вы не можете прикреплять файлы к сообщениям
Вы не можете скачивать файлы

!ВНИМАНИЕ!
Сайт не предоставляет электронные версии произведений, а занимается лишь коллекционированием и каталогизацией ссылок, присылаемых и публикуемых на форуме нашими читателями. Если вы являетесь правообладателем какого-либо представленного материала и не желаете, чтобы ссылка на него находилась в нашем каталоге, свяжитесь с нами, и мы незамедлительно удалим ее. Файлы для обмена на трекере предоставлены пользователями сайта, и администрация не несет ответственности за их содержание. Просьба не заливать файлы, защищенные авторскими правами, а также файлы нелегального содержания!