[ Сегодня идет свободное скачивание без начисления Download ]


Статистика раздачи
Нет
 
   
 
Top  
 
 
Падение Лондона / London Has Fallen«Приготовься к кровавому аду» ♦ Год выпуска: 2016
♦ Страна: США, Великобритания, Болгария
♦ Производство: Gerard Butler Alan Siegel Entertainment, LHF Film, Millennium Films
♦ Жанр: Боевик, триллер, криминал
♦ Режиссёр: Бабак Наджафи
♦ В ролях: Джерард Батлер, Аарон Экхарт, Морган Фримен, Алон Абутбул, Валид Зуэйтер, Адель Беншериф, Мехди Дехби, Шивани Гаи, Мартин Петрушев, Оуэн Дэвис, Майкл Уилдман, Рада Митчелл, Стэйси Шэйн, Пенни Дауни, Кларксон Гай Уильямс, Патрик Кеннеди, Колин Сэлмон, Анджела Бассетт, Дебора Грант, Эндрю Плевин
♦ Перевод: Дублированный [Звук с TS]
♦ Субтитры: Корейские (вшитые, не отключаемые)
♦ Описание: Действие фильма начинается в Лондоне, где премьер-министр Великобритании погибает при загадочных обстоятельствах. На похоронах безусловно присутствуют руководители западного мира. Но то, что начиналось как наиболее безопасное событие на земле, превращается в опаснейшее покушение на самых мощных мировых лидеров, что в свою очередь ставит под угрозу будущее всего мира. Только три человека сохраняют надежду на предотвращение катастрофы: президент США, его верный помощник — агент спецслужбы и английский агент МИ-6, который никому не доверяет.
♦ Доп инфо: Релиз без рекламы! ♦ Качество: WEBRip
♦ Продолжительность: 01:37:16
♦ Формат: AVI
♦ Видео кодек: XviD
♦ Аудио кодек: AC3
♦ Видео: 720x304 (2.37:1), 23.992 fps, XviD MPEG-4 ~-1762 kbps avg, 0.335 bit/pixel
♦ Аудио: 48 kHz, AC3 Dolby Digital, 2/0 (L,R) ch, ~192 kbps
♦ Дата премьеры (мир): 1 марта 2016
♦ Дата премьеры (РФ): 17 марта 2016, «Парадиз»

MediaInfo:

Общее
Полное имя : E:\Kaztorka\London.2016.D.WEBRip.avi
Формат : AVI
Формат/Информация : Audio Video Interleave
Размер файла : 1,39 Гбайт
Продолжительность : 1 ч. 37 м.
Общий поток : 2043 Кбит/сек
Название фильма : rustorrents.info
Программа кодирования : VirtualDubMod 1.5.10.3 | www.virtualdub-fr.org || (build 2550/release)
Видео
Идентификатор : 0
Формат : MPEG-4 Visual
Профиль формата : Advanced Simple@L5
Параметр BVOP формата : 2
Параметр QPel формата : Нет
Параметр GMC формата : Без точки перехода
Параметр матрицы формата : Default (H.263)
Режим смешивания : Сжатый битовый поток
Идентификатор кодека : XVID
Идентификатор кодека/Подсказка : XviD
Продолжительность : 1 ч. 37 м.
Битрейт : 1762 Кбит/сек
Ширина : 720 пикселей
Высота : 304 пикселя
Соотношение сторон : 2,35:1
Частота кадров : 24,000 кадра/сек
Цветовое пространство : YUV
Субдискретизация насыщенности : 4:2:0
Битовая глубина : 8 бит
Тип развёртки : Прогрессивная
Метод сжатия : С потерями
Бит/(Пиксели*Кадры) : 0.335
Размер потока : 1,20 Гбайт (86%)
Библиотека кодирования : XviD 66
Аудио
Идентификатор : 1
Формат : AC-3
Формат/Информация : Audio Coding 3
Расширение режима : CM (complete main)
Параметр Endianness формата : Big
Идентификатор кодека : 2000
Продолжительность : 1 ч. 37 м.
Вид битрейта : Постоянный
Битрейт : 192 Кбит/сек
Каналы : 2 канала
Расположение каналов : Front: L R
Частота : 48,0 КГц
Битовая глубина : 16 бит
Метод сжатия : С потерями
Размер потока : 134 Мбайт (9%)
Выравнивание : Разделение по промежуткам

Скриншоты

[Цитировать]



Показать сообщения:    

Текущее время: 11-Дек 15:00

Часовой пояс: UTC + 3


Вы не можете начинать темы
Вы не можете отвечать на сообщения
Вы не можете редактировать свои сообщения
Вы не можете удалять свои сообщения
Вы не можете голосовать в опросах
Вы не можете прикреплять файлы к сообщениям
Вы не можете скачивать файлы

!ВНИМАНИЕ!
Сайт не предоставляет электронные версии произведений, а занимается лишь коллекционированием и каталогизацией ссылок, присылаемых и публикуемых на форуме нашими читателями. Если вы являетесь правообладателем какого-либо представленного материала и не желаете, чтобы ссылка на него находилась в нашем каталоге, свяжитесь с нами, и мы незамедлительно удалим ее. Файлы для обмена на трекере предоставлены пользователями сайта, и администрация не несет ответственности за их содержание. Просьба не заливать файлы, защищенные авторскими правами, а также файлы нелегального содержания!